<?xml version="1.0" standalone="no"?>
<!DOCTYPE svg PUBLIC "-//W3C//DTD SVG 1.1//EN" "http://www.w3.org/Graphics/SVG/1.1/DTD/svg11.dtd" >
<svg xmlns="http://www.w3.org/2000/svg">
<metadata>Generated by IcoMoon</metadata>
<defs>
<font id="icomoon" horiz-adv-x="1024">
<font-face units-per-em="1024" ascent="960" descent="-64" />
<missing-glyph horiz-adv-x="1024" />
<glyph unicode="&#x20;" horiz-adv-x="512" d="" />
<glyph unicode="&#xe900;" glyph-name="wireless" d="M50.381 585.011c117.555 124.109 280.166 200.909 459.571 200.909s342.016-76.8 459.571-200.909l-78.029-82.33c-97.69 103.014-232.653 166.707-381.542 166.707s-283.853-63.693-381.542-166.707c0 0-78.029 82.33-78.029 82.33zM269.517 353.997c61.645 64.922 146.637 105.062 240.435 105.062s178.995-40.141 240.435-105.062l80.077 84.582c-82.125 86.63-195.379 140.083-320.717 140.083s-238.592-53.453-320.717-140.083c0.205 0 80.486-84.582 80.486-84.582zM409.6 206.131c25.6 27.034 61.235 43.827 100.352 43.827s74.752-16.794 100.352-43.827l78.848 83.149c-45.875 48.333-109.158 78.234-179.2 78.234s-133.325-29.901-179.2-78.234c0 0 78.848-83.149 78.848-83.149zM509.952 167.219c-40.755 0-73.728-32.973-73.728-73.728s32.973-73.728 73.728-73.728 73.728 32.973 73.728 73.728c0 40.755-32.973 73.728-73.728 73.728z" />
<glyph unicode="&#xe901;" glyph-name="network" d="M556.237 173.363h-78.848v-78.848h-157.491v-78.643h393.83v78.848h-157.491v78.643zM910.541 94.72h-157.491v-78.848h157.491v78.848zM280.576 94.72h-157.491v-78.848h157.491v78.848zM910.541 488.346v-157.491h-787.456v157.491h787.456zM989.389 567.194h-945.152v-314.982h945.152v314.982zM831.898 370.176c-21.709 0-39.322 17.613-39.322 39.322s17.613 39.322 39.322 39.322c21.709 0 39.322-17.613 39.322-39.322 0-21.504-17.613-39.322-39.322-39.322zM713.728 370.176c-21.709 0-39.322 17.613-39.322 39.322s17.613 39.322 39.322 39.322c21.709 0 39.322-17.613 39.322-39.322 0-21.504-17.613-39.322-39.322-39.322zM595.558 370.176c-21.709 0-39.322 17.613-39.322 39.322s17.613 39.322 39.322 39.322c21.709 0 39.322-17.613 39.322-39.322 0-21.504-17.408-39.322-39.322-39.322zM217.702 606.515h-94.618l157.491 275.661h472.474l157.491-275.661h-94.618l-105.062 196.813h-388.096c0 0-105.062-196.813-105.062-196.813z" />
<glyph unicode="&#xe902;" glyph-name="cloud" d="M512 726.733c137.421 0 234.496-111.411 221.594-269.926 69.427 1.843 176.538-29.901 176.538-148.070 0-76.8-62.464-139.469-139.469-139.469h-517.53c-76.8 0-139.469 62.464-139.469 139.469 0 111.411 98.714 152.576 176.538 148.070-6.554 167.936 88.064 269.926 221.798 269.926zM512 806.4c-159.539 0-289.382-125.133-297.779-282.419-102.4-18.432-180.019-107.725-180.019-215.45 0-121.037 98.099-218.931 218.931-218.931h517.734c121.037 0 218.931 98.099 218.931 218.931 0 107.52-77.619 197.018-180.019 215.45-8.397 157.286-138.24 282.419-297.779 282.419z" />
<glyph unicode="&#xe903;" glyph-name="checkbox" d="M942.080 799.846c0 37.478-30.31 67.994-67.994 67.994h-728.269c-37.683 0-67.994-30.31-67.994-67.994v-728.474c0-37.478 30.31-67.994 67.994-67.994h728.474c37.478 0 67.994 30.31 67.994 67.994v728.474zM441.754 215.962l-190.054 190.054c-7.373 7.373-7.373 19.456 0 26.829l41.37 41.37c7.373 7.373 19.456 7.373 26.829 0l122.061-122.061 258.253 257.638c7.373 7.373 19.251 7.373 26.624 0l41.165-40.55c7.578-7.373 7.578-19.456 0-26.829l-326.246-326.451z" />
<glyph unicode="&#xe904;" glyph-name="checkbox2" d="M145.818 4.608h728.269c37.478 0 67.994 30.31 67.994 67.994v728.269c0 37.478-30.31 67.994-67.994 67.994h-728.269c-37.478 0-67.994-30.31-67.994-67.994v-728.269c0.205-37.478 30.515-67.994 67.994-67.994zM173.875 772.813h672.154v-672.154h-672.154v672.154z" />
<glyph unicode="&#xe905;" glyph-name="stop" d="M98.714 864.358h823.296v-823.296h-823.296v823.296z" />
<glyph unicode="&#xe906;" glyph-name="slider" d="M220.709 884.959c-26.88 0-48.64-21.577-48.64-48.64v-251.246c15.177 5.303 31.451 8.411 48.64 8.411s33.463-3.109 48.64-8.411v251.246c-0.183 27.063-21.76 48.64-48.64 48.64zM172.069 310.788v-251.246c0-26.88 21.577-48.64 48.64-48.64s48.64 21.577 48.64 48.64v251.246c-15.177-5.303-31.451-8.411-48.64-8.411s-33.463 3.109-48.64 8.411zM803.291 884.959c-26.88 0-48.64-21.577-48.64-48.64v-445.44c15.177 5.303 31.451 8.411 48.64 8.411 17.006 0 33.463-3.109 48.64-8.411v445.44c0 27.063-21.76 48.64-48.64 48.64zM754.834 116.594v-57.051c0-26.88 21.577-48.64 48.64-48.64s48.64 21.577 48.64 48.64v57.051c-15.177-5.303-31.451-8.411-48.64-8.411s-33.463 3.109-48.64 8.411zM512 884.959c-26.88 0-48.64-21.577-48.64-48.64v-57.051c15.177 5.303 31.451 8.411 48.64 8.411s33.463-3.109 48.64-8.411v57.051c0 27.063-21.76 48.64-48.64 48.64zM463.36 505.165v-445.44c0-26.88 21.577-48.64 48.64-48.64s48.64 21.577 48.64 48.64v445.44c-15.177-5.303-31.451-8.411-48.64-8.411s-33.463 2.926-48.64 8.411zM317.806 447.931c0-53.577-43.52-97.097-97.097-97.097s-97.097 43.52-97.097 97.097c0 53.577 43.52 97.097 97.097 97.097s97.097-43.337 97.097-97.097zM609.097 642.308c0-53.577-43.52-97.097-97.097-97.097s-97.097 43.52-97.097 97.097c0 53.577 43.52 97.097 97.097 97.097s97.097-43.52 97.097-97.097zM900.389 253.737c0-53.577-43.52-97.097-97.097-97.097s-97.097 43.52-97.097 97.097c0 53.577 43.52 97.097 97.097 97.097s97.097-43.337 97.097-97.097z" />
<glyph unicode="&#xe907;" glyph-name="link2" d="M589.005 99.226l-130.048-75.162c-129.843-74.957-295.936-30.515-370.893 99.533-74.957 129.843-30.515 295.936 99.328 370.893l130.253 75.162 57.344-99.328-130.253-75.162c-74.752-43.213-100.557-139.264-57.344-214.016 43.213-74.957 139.264-100.762 214.221-57.344l130.048 74.957c0-0.205 57.344-99.533 57.344-99.533zM465.715 772.608l-75.162-130.048 99.328-57.344 75.162 130.253c43.213 74.752 139.264 100.557 214.016 57.344 74.957-43.213 100.557-139.264 57.549-214.221l-75.162-130.048 99.328-57.344 75.162 129.843c74.957 129.843 30.31 295.936-99.328 370.893-129.843 74.957-295.936 30.515-370.893-99.328zM749.568-2.97l-66.15-9.421-20.070 141.517 66.15 9.421 20.070-141.517zM972.39 276.378l-9.626-66.15-141.517 20.275 9.421 66.15 141.722-20.275zM752.435 160.87l47.104 47.104 101.171-101.171-47.309-47.104c0.205 0-100.966 101.171-100.966 101.171z" />
<glyph unicode="&#xe908;" glyph-name="minus2" d="M509.952 921.088c-260.096 0-471.040-210.944-471.040-471.040s210.944-471.040 471.040-471.040 471.040 210.944 471.040 471.040-210.944 471.040-471.040 471.040zM745.472 410.726h-471.040v78.438h471.040v-78.438z" />
<glyph unicode="&#xe909;" glyph-name="more" d="M512 919.040c-260.096 0-471.040-210.944-471.040-471.040s210.944-471.040 471.040-471.040 471.040 210.944 471.040 471.040-210.944 471.040-471.040 471.040zM747.52 408.678h-196.198v-196.198h-78.438v196.198h-196.403v78.438h196.198v196.198h78.438v-196.198h196.403v-78.438z" />
<glyph unicode="&#xe90a;" glyph-name="zip" d="M590.234 608.768h-123.494v-41.165h123.494v41.165zM590.234 526.234h-123.494v-41.165h123.494v41.165zM528.589 199.373c-66.97 0-116.122 38.093-99.942 103.014l38.093 141.517h123.494l38.093-141.517c16.179-64.922-32.768-103.014-99.738-103.014zM590.234 279.245c0 55.296-123.494 54.067-123.494-0.205 0-52.019 123.494-52.224 123.494 0.205zM264.192 773.632c56.73-66.355 106.086-123.699 202.547-123.699h453.222v-535.757h-824.115v659.456c0 0 168.346 0 168.346 0zM301.875 855.962h-288.563v-824.115h988.979v700.621h-535.552c-67.174 0-95.027 43.418-164.864 123.494z" />
<glyph unicode="&#xe90b;" glyph-name="mobile" d="M686.694 921.293h-347.955c-56.115 0-101.99-45.875-101.99-101.99v-743.834c0-56.115 45.875-101.99 101.99-101.99h347.955c56.115 0 101.99 45.875 101.99 101.99v743.834c0 56.115-45.875 101.99-101.99 101.99zM512.819-5.427c-26.214 0-47.309 21.299-47.309 47.309 0 26.214 21.299 47.309 47.309 47.309 26.214 0 47.309-21.299 47.309-47.309s-21.299-47.309-47.309-47.309zM734.618 138.547c0-14.336-11.878-26.214-26.214-26.214h-391.373c-14.336 0-26.214 11.878-26.214 26.214v617.882c0 14.336 11.878 26.214 26.214 26.214h391.373c14.336 0 26.214-11.878 26.214-26.214 0 0 0-617.882 0-617.882z" />
<glyph unicode="&#xe90c;" glyph-name="tablet" d="M792.576-33.075c44.237 0 80.077 35.84 80.077 80.077v801.997c0 44.237-35.84 80.077-80.077 80.077h-561.152c-44.237 0-80.077-35.84-80.077-80.077v-801.792c0-44.237 35.84-80.077 80.077-80.077h561.152zM231.424 87.142v721.715h561.152v-721.51h-561.152zM491.93 27.136c0 11.059 9.011 20.070 20.070 20.070s20.070-9.011 20.070-20.070-9.011-20.070-20.070-20.070-20.070 9.011-20.070 20.070z" />
<glyph unicode="&#xe90d;" glyph-name="share2" d="M649.626 368.947c0 0-474.726 122.266-602.726-298.394 0 0-46.080 602.522 602.726 602.522v152.371l335.462-300.646-335.462-310.477v154.624z" />
<glyph unicode="&#xe90e;" glyph-name="mail" d="M530.432 297.267c-6.349-6.349-14.746-9.83-23.552-9.83s-17.408 3.482-23.552 9.83l-435.2 435.2c-1.229-5.325-3.277-10.445-3.277-16.384v-534.528c0-36.864 29.901-66.765 66.765-66.765h801.792c36.864 0 66.765 29.901 66.765 66.765v534.528c0 9.216-1.843 18.022-5.325 25.805l-444.416-444.621zM506.88 368.333l413.286 413.286c-2.458 0.205-4.301 1.434-6.758 1.434h-801.587c-5.734 0-11.059-1.843-16.384-3.277l411.443-411.443z" />
<glyph unicode="&#xe90f;" glyph-name="caution3" d="M512 842.24c217.293 0 394.24-176.947 394.24-394.24s-176.947-394.24-394.24-394.24-394.24 176.947-394.24 394.24 176.947 394.24 394.24 394.24zM512 921.088c-261.325 0-473.088-211.763-473.088-473.088s211.763-473.088 473.088-473.088 473.088 211.763 473.088 473.088-211.763 473.088-473.088 473.088zM460.39 624.333c-3.891 31.744 20.89 60.211 53.043 60.211 30.31 0 54.272-26.624 50.381-57.139l-29.901-238.592c-1.434-11.059-10.854-19.456-22.118-19.456s-20.685 8.397-22.118 19.456c0.205 0-29.286 235.52-29.286 235.52zM512 201.626c-27.238 0-49.357 22.118-49.357 49.357s22.118 49.357 49.357 49.357 49.357-22.118 49.357-49.357c0-27.238-22.118-49.357-49.357-49.357z" />
<glyph unicode="&#xe910;" glyph-name="lock" d="M362.086 529.92h-120.627v151.142c0 147.046 119.808 266.65 266.854 266.65s266.854-119.603 266.854-266.854v-150.938h-120.627v151.142c0 80.691-65.536 146.227-146.227 146.227s-146.227-65.536-146.227-146.227v-151.142zM865.075 457.421v-502.989h-713.523v502.989h713.523zM573.44 246.067c0 36.045-29.082 65.126-65.126 65.126s-65.126-29.082-65.126-65.126c0-18.842 7.987-35.84 20.685-47.718 10.65-9.83 16.589-23.552 16.589-38.093v-55.296h55.501v55.296c0 14.541 5.939 28.262 16.589 38.093 12.902 12.083 20.89 28.877 20.89 47.718z" />
<glyph unicode="&#xe911;" glyph-name="domain" d="M755.712 323.482v-242.893h242.893v242.893zM633.651 885.248h-242.893v-242.893h242.893v242.893zM832.102 416.051c0-9.216-0.41-18.227-1.229-27.238h87.245c0.614 9.011 1.024 18.022 1.024 27.238 0 157.082-89.498 293.683-220.16 361.472v-101.99c80.691-58.163 133.12-152.781 133.12-259.482zM25.805 323.482v0 0-242.893h242.893v242.893zM192.307 416.051c0 106.701 52.634 201.523 133.12 259.686v101.99c-130.662-67.789-220.16-204.39-220.16-361.472 0-9.216 0.41-18.227 1.024-27.238h87.245c-0.819 8.602-1.229 17.818-1.229 27.034zM690.381 150.426c-50.995-34.406-112.23-54.272-178.176-54.272s-127.181 20.070-178.176 54.272v-100.147c53.862-26.419 114.278-41.165 178.176-41.165s124.314 14.746 178.176 41.165v100.147z" />
<glyph unicode="&#xe912;" glyph-name="script" d="M409.19 413.389l215.654 126.362 34.202-44.237-217.088-127.181-32.768 45.056zM696.115 450.458l-218.112-128 32.768-45.056 219.546 128.614-34.202 44.442zM855.245 221.491c-66.97-43.827 0 0 0 0 0-0.205-390.963-246.784-390.963-246.784v0c-60.826-36.045-132.915-21.504-177.562 22.938-64.307 64.307-53.043 173.261 24.371 223.642l44.442-57.139c-67.379-35.84-41.37-137.83 34.202-137.83 60.006 0 94.618 69.018 58.368 116.941 0 0-241.869 309.453-302.285 385.229-62.464 79.258-39.731 185.139 46.694 226.714l341.402 174.49c63.078 28.058 138.65 5.12 174.694-56.32 35.021-59.802 20.48-137.83-37.274-180.429l-337.51-190.669-44.646 57.344c67.379 36.045 41.165 137.626-34.406 137.626-51.2 0-101.376-61.645-52.429-124.518 58.982-75.366 298.189-380.109 298.189-380.109 21.504-25.6 32.973-56.73 33.997-88.474 0 0 239.002 150.733 275.866 174.285 38.093 24.371 45.056 70.451 16.998 103.014-0.614 0.614-186.778 229.171-186.778 229.171l62.259 37.478c0 0 137.011-168.346 186.778-229.171 48.128-58.163 32.358-153.6-34.406-197.427zM647.782 834.867c-17.408 33.382-56.32 42.394-85.606 28.672l-228.762-117.146c41.574-26.624 67.994-73.523 66.765-125.747l222.413 125.952c34.611 20.070 40.141 59.392 25.19 88.269z" />
<glyph unicode="&#xe913;" glyph-name="business" d="M519.373 627.405c29.491 41.165-2.048 43.213-7.373 43.213v0 0c-5.325 0-38.093-2.048-7.373-43.213l-14.746-67.584h-149.914v48.538c0 10.65 4.301 20.070 12.698 26.419 44.237 35.84 90.726 60.211 100.352 64.307 1.024 1.024 2.048 2.048 2.048 3.072v68.608c-8.397 5.325-13.722 15.77-13.722 26.419v70.861c0 34.816 28.467 63.283 63.283 63.283h14.746c34.816 0 63.283-28.467 63.283-63.283v-70.656c0-11.674-5.325-21.094-13.722-26.419v-68.608c0-1.024 1.024-2.048 2.048-3.072 9.421-4.301 56.934-28.467 100.352-64.307 8.397-6.349 12.698-15.77 12.698-26.419v-48.538h-149.914l-14.746 67.379zM898.253 103.936c-1.024 1.024-2.048 2.048-2.048 3.072v68.608c8.397 5.325 13.722 15.77 13.722 26.419v70.656c0 34.816-28.467 63.283-63.283 63.283h-14.746c-34.816 0-63.283-28.467-63.283-63.283v-70.656c0-11.674 5.325-21.094 13.722-26.419v-68.608c0-1.024-1.024-2.048-2.048-3.072-9.421-4.301-56.934-28.467-100.352-64.307-8.397-6.349-12.698-15.77-12.698-26.419v-48.538h149.914l14.746 67.584c-29.491 41.165 2.048 43.213 7.373 43.213v0 0c5.325 0 38.093-2.048 7.373-43.213l14.746-67.584h149.914v48.538c0 10.65-4.301 20.070-12.698 26.419-43.418 35.84-90.931 58.982-100.352 64.307zM243.917 103.936c-1.024 1.024-2.048 2.048-2.048 3.072v68.608c8.397 5.325 13.722 15.77 13.722 26.419v70.656c0 34.816-28.467 63.283-63.283 63.283h-14.746c-34.816 0-63.283-28.467-63.283-63.283v-70.656c0-11.674 5.325-21.094 13.722-26.419v-68.608c0-1.024-1.024-2.048-2.048-3.072-9.421-4.301-56.934-28.467-100.352-64.307-8.397-6.349-12.698-15.77-12.698-26.419v-48.538h149.914l14.746 67.584c-29.491 41.165 2.048 43.213 7.373 43.213v0 0c5.325 0 38.093-2.048 7.373-43.213l14.746-67.584h149.914v48.538c0 10.65-4.301 20.070-12.698 26.419-44.442 35.84-90.726 58.982-100.352 64.307zM512 439.603c-12.698 0-23.142-10.65-23.142-23.142s10.65-23.142 23.142-23.142 23.142 10.65 23.142 23.142-10.445 23.142-23.142 23.142zM512 372.019c-12.698 0-23.142-10.65-23.142-23.142s10.65-23.142 23.142-23.142 23.142 10.65 23.142 23.142-10.445 23.142-23.142 23.142zM512 304.435c-12.698 0-23.142-10.65-23.142-23.142 0-12.698 10.65-23.142 23.142-23.142s23.142 10.65 23.142 23.142c0 12.698-10.445 23.142-23.142 23.142zM512 505.958c-6.349 0-11.674-2.048-15.77-6.349-4.301-4.301-6.349-10.65-6.349-15.77 0-6.349 2.048-11.674 6.349-15.77 4.301-4.301 10.65-6.349 15.77-6.349 6.349 0 11.674 2.048 15.77 6.349s6.349 10.65 6.349 15.77c0 6.349-2.048 11.674-6.349 15.77-4.096 4.301-9.421 6.349-15.77 6.349zM580.608 264.294c-10.65 7.373-25.395 4.301-31.744-7.373-7.373-10.65-4.301-25.395 6.349-31.744 10.65-7.373 25.395-4.301 31.744 6.349 7.373 11.674 4.096 26.419-6.349 32.768zM637.542 228.454c-10.65 7.373-25.395 4.301-31.744-6.349-7.373-10.65-4.301-25.395 6.349-31.744 10.65-7.373 25.395-4.301 31.744 6.349s4.301 24.371-6.349 31.744zM700.826 159.846c7.373 10.65 4.301 25.395-6.349 31.744-10.65 7.373-25.395 4.301-31.744-6.349-7.373-10.65-4.301-25.395 6.349-31.744 10.65-7.373 24.371-4.096 31.744 6.349zM443.392 264.294c-10.65-7.373-13.722-21.094-7.373-31.744 7.373-10.65 21.094-13.722 31.744-6.349s13.722 21.094 6.349 31.744c-6.349 10.65-20.070 13.722-30.72 6.349zM386.458 228.454c-10.65-7.373-13.722-21.094-6.349-31.744s21.094-13.722 31.744-6.349c10.65 7.373 13.722 21.094 6.349 31.744-6.554 9.626-21.299 12.698-31.744 6.349zM330.547 191.59c-10.65-7.373-13.722-21.094-6.349-31.744s21.094-13.722 31.744-6.349c10.65 7.373 13.722 21.094 7.373 31.744-8.602 10.445-22.323 13.722-32.768 6.349z" />
<glyph unicode="&#xe914;" glyph-name="build" d="M912.589 503.501l95.027-55.501-495.616-289.178-495.616 289.178 95.027 55.501 400.589-233.677 400.589 233.677zM512 63.181l-400.589 233.677-95.027-55.501 495.616-288.973 495.616 289.178-95.027 55.501-400.589-233.882zM512 943.616l-495.616-289.178 495.616-288.973 495.616 289.178-495.616 288.973z" />
<glyph unicode="&#xe915;" glyph-name="themes2" d="M401.613 160.051c-66.355 0-134.554 29.082-177.562 89.088 7.168-0.614 13.722-0.819 20.275-0.819 163.635 0 107.52 185.754 275.456 187.597l75.776-63.078c11.264-139.674-88.883-212.787-193.946-212.787zM802.611 541.798c48.742 76.595 157.696 280.576 199.27 359.834 2.662 4.506 3.686 9.011 3.686 13.312 0 14.541-12.902 26.624-27.034 26.624-5.53 0-11.469-1.843-16.794-6.349-68.608-58.163-242.483-206.438-308.838-268.493-63.078-58.982-63.283-85.811-83.558-182.886l69.018-57.549c91.546 37.683 117.76 42.803 164.25 115.507zM841.114 455.168v-418.611h-740.352v575.898h415.334c26.829 73.523 71.68 109.568 230.4 246.784h-728.064v-904.806h904.806v629.965c-28.262-49.971-52.429-93.184-82.125-129.229z" />
<glyph unicode="&#xe916;" glyph-name="download" d="M953.139 728.986v-768.41h-855.654v768.41h236.339v-104.653h-131.891v-559.309h646.554v559.514h-135.987v104.653h240.64zM586.957 441.856v487.424h-123.29v-487.424h-150.528l211.968-253.952 212.173 253.952h-150.323z" />
<glyph unicode="&#xe917;" glyph-name="upload" d="M97.485 160.87v768.41h855.654v-768.41h-236.339v104.653h131.891v559.104h-646.554v-559.309h135.987v-104.653h-240.64zM463.667 448v-487.424h123.494v487.424h150.528l-211.968 253.952-212.378-253.952h150.323z" />
<glyph unicode="&#xe918;" glyph-name="themes" d="M464.691 217.19c-1.024 0-2.253 0-3.482 0 12.288-21.709 35.43-33.178 61.44-33.178 46.899 0 102.605 37.274 118.784 117.76l-26.624 26.624c-83.763-5.939-66.15-111.206-150.118-111.206zM715.981 373.453l-29.696 29.696-56.934-60.211 26.419-26.419zM879.616 482.406l-208.077-195.994c-22.528-92.57-92.57-134.963-148.89-134.963-41.574 0-76.186 19.456-90.317 50.79-3.072 6.963-10.035 28.672-10.035 28.672l-4.71 14.541 15.155 1.434c0 0 31.13 3.072 31.949 3.072 22.323 0 30.31 10.035 47.923 38.707 16.179 26.624 38.298 62.874 88.064 71.27l169.37 179.2c-22.118 8.192-44.851 15.36-68.403 20.89-41.574 9.83-83.354 14.336-124.109 14.336-306.586 0-561.562-255.795-365.363-482.099 55.296-63.898 208.486-130.253 333.21-130.253 39.526 0 76.186 6.758 105.882 22.323 19.456 10.24 20.070 35.635 2.458 60.006-22.118 30.925-59.392 59.187-38.502 91.136 7.168 10.854 19.456 14.541 35.635 14.541 32.154 0 78.848-14.541 126.362-14.541 0.41 0 1.024 0 1.434 0 77.005 0.41 166.912 32.973 195.174 130.662 24.986 86.835-18.227 161.792-94.208 216.269zM227.533 356.454c0 22.938 26.419 41.574 58.982 41.574s58.982-18.637 58.982-41.574c0-22.938-26.419-41.574-58.982-41.574s-58.982 18.637-58.982 41.574zM285.696 162.099c-41.574 0-75.366 23.757-75.366 53.248s33.792 53.248 75.366 53.248c41.779 0 75.571-23.757 75.571-53.248-0.205-29.491-33.997-53.248-75.571-53.248zM329.933 449.024c0 18.637 21.504 33.792 47.923 33.792s47.923-15.155 47.923-33.792c0-18.637-21.504-33.792-47.923-33.792s-47.923 14.95-47.923 33.792zM450.56 504.525c0 14.95 17.203 27.034 38.298 27.034 21.299 0 38.502-12.083 38.502-27.034s-17.203-27.034-38.502-27.034c-21.094 0-38.298 12.083-38.298 27.034zM990.208 677.376c-6.144 6.144-14.336 9.216-22.323 9.216s-16.179-3.072-22.323-9.216l-245.35-259.482 30.515-30.515 259.277 245.146c12.493 12.288 12.698 32.358 0.205 44.851zM891.494 804.966v-138.24l39.526 41.779c5.734 5.734 12.698 9.421 20.070 12.083v143.974c0 21.709-17.613 39.526-39.526 39.526h-647.373c-21.709 0-39.526-17.613-39.526-39.526v-20.275h627.302c21.709 0 39.526-17.613 39.526-39.322zM792.371 705.843v-143.155l59.597 63.078v139.674c0 21.709-17.613 39.526-39.322 39.526h-647.373c-21.709 0-39.526-17.613-39.526-39.526v-20.275h627.302c21.709 0 39.322-17.613 39.322-39.322zM115.917 374.682c67.994 148.685 257.843 252.723 461.619 252.723 45.875 0 91.75-5.325 136.192-15.565 13.107-3.072 26.214-6.758 39.322-10.65v65.331c0 21.709-17.613 39.526-39.526 39.526h-647.373c-21.709 0-39.526-17.613-39.526-39.526v-408.986c0-21.709 17.613-39.526 39.526-39.526h27.443c-8.192 52.019-1.229 105.062 22.323 156.672z" />
<glyph unicode="&#xe919;" glyph-name="arrow4" d="M600.064 775.885v0c-24.371-24.371-24.371-63.693 0-88.064l180.224-180.224h-702.054c-34.406 0-62.259-27.853-62.259-62.259v0c0-34.406 27.853-62.259 62.259-62.259h702.874l-178.586-178.586c-24.371-24.371-24.371-63.693 0-88.064v0c24.371-24.371 63.693-24.371 88.064 0l303.309 303.309c13.926 13.926 13.926 36.659 0 50.79l-305.766 305.357c-24.371 24.371-63.693 24.371-88.064 0z" />
<glyph unicode="&#xe91a;" glyph-name="pin" d="M582.861 270.848v-229.581l-132.301-98.918v328.499h132.301zM229.171 332.288h574.669c0 224.87-141.926 235.725-141.926 393.83 0 121.242 75.776 146.637 79.053 226.509h-448.922c3.277-80.282 79.053-104.448 79.053-226.509v0c0-158.72-141.926-168.55-141.926-393.83zM432.947 829.542h60.006v-223.846h-60.006v223.846z" />
<glyph unicode="&#xe91b;" glyph-name="report2" d="M300.646 556.544h426.598v-65.946h-426.598v65.946zM300.646 412.774h426.598v-65.946h-426.598v65.946zM820.429 900.608v-70.451h-72.294v70.451h-105.472v-70.451h-72.294v70.451h-105.472v-70.451h-72.294v70.451h-105.472v-70.451h-72.294v70.451h-96.051v-906.24h790.323v906.24h-88.678zM821.248 82.432v0h-614.4v605.798h614.4v-605.798zM300.646 269.005h426.803v-65.946h-426.803v65.946z" />
<glyph unicode="&#xe91c;" glyph-name="template" d="M328.499 656.896h349.798v-557.261h90.317v647.578h-349.798l-90.317-90.317zM491.11 820.531h349.798v-598.016h90.317v688.128h-350.003l-90.112-90.112zM312.525 490.803h198.656v-419.43h-324.813v293.478h126.157v125.952zM96.256 421.376v-440.32h505.242v600.064h-345.498l-159.744-159.744z" />
<glyph unicode="&#xe91d;" glyph-name="line-height" d="M697.139 888.115v0h-665.19v-194.765h85.197c0 47.514 38.502 86.016 86.016 86.016h100.352v-625.459c0-47.514-38.502-86.016-86.016-86.016h-29.696v-84.582h350.413v84.582h-25.395c-47.514 0-86.016 38.502-86.016 86.016v625.459h99.533c47.514 0 86.016-38.502 86.016-86.016h84.582l0.205 194.765zM888.422 736.563h80.896l-114.688 167.936-114.893-167.936h81.101v-595.558h-81.101l114.893-167.936 114.688 167.936h-80.896v595.558z" />
<glyph unicode="&#xe91e;" glyph-name="outdent" d="M16.384 879.104h991.232v-96.256h-991.232v96.256zM403.661 686.592h603.955v-96.256h-603.955v96.256zM403.661 494.080h603.955v-96.256h-603.955v96.256zM403.661 301.568h603.955v-96.256h-603.955v96.256zM16.384 109.056h991.232v-96.256h-991.232v96.256zM295.526 255.078v381.747l-279.142-190.874 279.142-190.874z" />
<glyph unicode="&#xe91f;" glyph-name="indent" d="M15.155 880.128h993.69v-96.461h-993.69v96.461zM403.456 687.206h605.389v-96.461h-605.389v96.461zM403.456 494.285h605.389v-96.461h-605.389v96.461zM403.456 301.158h605.389v-96.461h-605.389v96.461zM15.155 108.237h993.69v-96.461h-993.69v96.461zM15.155 637.235v-382.771l279.757 191.488-279.757 191.283z" />
<glyph unicode="&#xe920;" glyph-name="bell" d="M515.291-9.143c81.737 0 147.931 66.194 147.931 147.931h-295.863c0-81.737 66.194-147.931 147.931-147.931zM923.429 290.56c-162.743 104.594-111.36 264.96-162.377 415.269-4.206 12.434-8.229 24.869-12.434 37.486-32 98.377-124.343 169.326-233.326 169.326-108.069 0-199.863-70.034-232.594-167.131-70.217-152.32-23.040-346.697-177.371-454.583-16.457-11.52-28.709-27.611-28.709-47.543v-1.829c0-29.623 23.954-53.76 53.76-53.76h767.451c29.623 0 53.76 23.954 53.76 53.76v1.646c-0.183 19.749-11.52 36.754-28.16 47.36z" />
<glyph unicode="&#xe921;" glyph-name="like" d="M919.954 304.274c35.657 55.771 17.554 131.84-7.68 156.16 10.057 30.903 19.2 89.6-6.583 132.023 0 0-192.731 0.183-195.291 0 31.086 133.851 44.8 346.697-91.246 346.697-75.337 0-93.806-67.84-114.651-134.766-85.943-276.297-291.109-279.040-414.903-292.937 0-98.011 0-316.16 0-426.057 189.074 0 284.16-15.543 446.72-84.846 170.789-72.594 382.537-50.834 359.131 145.189 45.531 45.166 44.251 116.297 24.503 158.537zM855.954 527.543c5.486-41.326-14.080-87.406-58.697-87.406h-80.457c-30.903 0-41.509 25.234-41.509 45.531 0 17.371 15.177 41.874 42.971 41.874h137.691zM162.011 154.697c0 99.291 0 173.897 0 290.926 238.811 20.48 357.12 165.486 406.309 318.903 15.36 47.543 19.749 113.006 60.526 100.571 44.069-13.349 42.789-141.166 8.96-264.046-14.446-52.48-52.663-96.549-20.114-159.634-57.783-19.931-76.617-118.674-28.16-159.817-38.583-37.669-37.303-113.006 9.509-149.029-17.554-20.846-24.869-44.617-22.491-70.217-78.263 27.429-215.406 92.343-414.537 92.343zM750.263 32.549h-60.343c-29.623 0-42.971 19.566-42.971 39.314 0 23.406 14.994 44.069 42.971 44.069h134.583c-2.377-31.817-16.64-83.383-74.24-83.383zM795.063 166.949h-121.6c-29.623 0-42.971 25.6-42.971 44.069s13.349 44.069 42.971 44.069h186.514c5.12-43.886-16.091-88.137-64.914-88.137zM810.971 305.371h-137.509c-29.623 0-42.971 26.331-42.971 44.069 0 18.103 13.349 43.337 42.971 43.337h195.109c5.486-40.594-13.166-87.406-57.6-87.406z" />
<glyph unicode="&#xe922;" glyph-name="blogger" d="M647.131 351.269c0-17.737-14.446-32.183-32.183-32.183h-196.571c-17.737 0-32.183 14.446-32.183 32.183s14.446 32.183 32.183 32.183h196.754c17.554 0 32-14.446 32-32.183zM418.377 515.657h98.377c17.737 0 32.183 14.446 32.183 32.183s-14.446 32.183-32.183 32.183h-98.377c-17.737 0-32.183-14.446-32.183-32.183-0.183-17.737 14.263-32.183 32.183-32.183zM941.714 877.714v-858.514h-858.514v858.514h858.514zM786.469 488.411c0 14.811-11.886 26.697-26.697 26.697h-43.886c-14.811 0-26.697 11.886-26.697 26.697v11.703c0 90.88-73.691 164.389-164.389 164.389h-113.92c-90.88 0-164.389-73.691-164.389-164.389v-209.92c0-90.88 73.691-164.389 164.389-164.389h211.017c90.88 0 164.389 73.691 164.389 164.389l0.183 144.823z" />
<glyph unicode="&#xe923;" glyph-name="github" d="M82.103 877.897v-863.269h863.269v863.269h-863.269zM609.463 152.137c-15.36-2.926-20.114 6.4-20.114 14.446 0 9.874 0 42.423 0 82.834 0 28.16-9.874 46.629-20.663 55.954 67.291 7.497 138.057 33.097 138.057 149.029 0 32.914-11.703 59.977-31.086 81.006 3.109 7.68 13.531 38.4-2.926 79.909 0 0-25.234 8.046-83.017-30.903-24.137 6.766-49.92 10.057-75.703 10.24-25.6-0.183-51.566-3.474-75.703-10.24-57.783 39.131-83.2 30.903-83.2 30.903-16.457-41.691-6.034-72.411-2.926-79.909-19.383-21.211-31.086-48.091-31.086-81.006 0-115.749 70.583-141.714 137.691-149.394-8.594-7.497-16.457-20.846-19.2-40.411-17.189-7.68-61.074-21.029-87.954 25.051 0 0-15.909 29.074-46.263 31.086 0 0-29.44 0.366-2.011-18.286 0 0 19.749-9.326 33.463-44.251 0 0 17.554-53.943 101.486-35.657v-56.32c0-8.046-4.937-17.371-19.931-14.446-120.137 39.863-206.629 153.234-206.629 286.72 0 166.949 135.314 302.080 302.080 302.080 166.949 0 302.080-135.314 302.080-302.080 0-133.12-86.491-246.309-206.446-286.354z" />
<glyph unicode="&#xe924;" glyph-name="facebook" d="M79.36 879.726v-866.926h866.926v866.926h-866.926zM655.36 646.766c0 0-48.091 0-67.291 0-23.771 0-28.709-9.691-28.709-34.377 0-20.48 0-59.429 0-59.429h96l-9.326-104.229h-86.857v-311.589h-124.343v310.309h-64.731v105.509h64.731c0 0 0 15.177 0 83.2 0 78.080 41.691 118.857 134.217 118.857 15.177 0 86.126 0 86.126 0v-108.251z" />
<glyph unicode="&#xe925;" glyph-name="googleplus" d="M530.651 265.143c0-53.394-43.337-95.086-133.12-95.086-70.217 0-120.869 44.434-120.869 97.829 0 52.297 59.429 97.463 129.646 96.731 77.897-0.183 124.343-48.64 124.343-99.474zM947.566 880.823v-869.303h-869.303v869.303h869.303zM591.177 271.36c0 49.371-18.469 81.554-74.057 123.246-56.503 41.143-70.217 64.549-16.457 106.24 30.354 23.406 51.749 54.857 51.749 93.44 0 42.057-17.189 80.274-49.554 98.926h45.714l39.131 40.96c0 0-147.383 0-174.811 0-109.166 0-162.743-65.463-162.743-137.326 0-73.509 50.469-131.474 149.029-131.474-15.36-30.903-9.143-59.246 15.909-79.726-168.229 0-204.251-73.874-204.251-130.743 0-73.691 84.663-117.577 186.331-117.577 138.789-0.183 194.011 73.509 194.011 134.034zM819.2 645.303h-80.64v80.64h-40.411v-80.64h-80.64v-40.411h80.64v-80.64h40.411v80.64h80.64v40.411zM482.011 591.543c-8.046 61.806-48.457 112.64-95.634 114.103s-78.811-45.897-70.583-107.886c8.046-61.806 52.846-105.143 100.023-106.606 47.36-1.463 74.423 38.4 66.194 100.389z" />
<glyph unicode="&#xe926;" glyph-name="share" d="M751.543 646.217c-35.657 0-69.12-9.326-98.194-25.783-19.2-10.789-42.789-10.24-61.257 1.646l-207.543 132.937c-16.091 10.24-26.149 27.611-27.246 46.629-4.389 74.057-65.829 134.034-142.263 134.034-78.811 0-142.629-63.817-142.629-142.629 0-100.937 101.851-169.143 194.377-132.754 17.737 6.949 37.669 4.937 53.76-5.303l178.651-114.286c32.366-20.846 52.297-56.686 52.297-95.269 0 0 0 0 0 0 0.183-37.303-18.834-72.229-50.286-92.343l-180.663-115.749c-16.091-10.24-36.023-12.251-53.76-5.303-92.709 36.389-194.377-32-194.377-132.754 0-78.811 63.817-142.629 142.629-142.629 76.434 0 138.057 59.977 142.263 134.034 1.097 19.017 11.337 36.389 27.246 46.629l207.543 132.937c18.469 11.886 42.24 12.617 61.257 1.646 29.074-16.457 62.537-25.783 98.194-25.783 110.446 0 200.046 89.6 200.046 200.046s-89.6 200.046-200.046 200.046z" />
<glyph unicode="&#xe927;" glyph-name="twitter" d="M954.514 720.64c-32.549-14.446-67.474-24.137-104.229-28.526 37.486 22.491 66.194 57.966 79.909 100.389-35.109-20.846-73.874-35.84-115.2-44.069-33.097 35.291-80.274 57.234-132.571 57.234-117.211 0-203.337-109.349-176.823-222.903-150.857 7.497-284.709 79.909-374.126 189.623-47.543-81.554-24.686-188.343 56.137-242.286-29.806 0.914-57.783 9.143-82.286 22.674-2.011-84.114 58.331-162.743 145.554-180.297-25.6-6.949-53.577-8.594-81.92-3.109 23.040-72.046 90.149-124.526 169.509-125.989-76.434-59.794-172.617-86.491-268.983-75.154 80.274-51.566 175.726-81.554 278.309-81.554 337.006 0 527.543 284.709 516.023 539.977 35.474 25.6 66.194 57.6 90.697 93.989z" />
<glyph unicode="&#xe928;" glyph-name="image" d="M922.010 729.6v-568.73h-817.562v568.73h817.562zM1020.314 828.109h-1014.17v-765.542h1014.374v765.542h-0.205zM449.741 238.49c-64.717 11.059-114.278 67.379-114.278 135.373v107.52l114.278-113.459v-129.434zM535.347 326.349v117.555c114.688 21.504 118.989 145.818 83.968 210.125l-57.344-63.078-49.562 63.078-46.080-63.078-58.778 63.078c-33.997-62.669-31.334-188.416 83.968-210.125v-207.258h62.259c75.981 0 137.421 61.645 137.421 137.421v107.52l-155.853-155.238z" />
<glyph unicode="&#xe929;" glyph-name="refresh2" d="M331.776 826.266c-129.638-80.282-203.571-215.654-210.739-356.966h-117.146l187.802-188.621 188.621 188.621h-116.122c6.963 93.594 56.934 182.067 142.95 235.52 142.541 88.269 329.728 44.442 417.997-98.099s44.442-329.728-98.099-417.997c-130.253-80.896-298.189-50.995-393.421 64.102l-100.762-102.81c141.722-159.949 381.952-199.475 569.549-83.149 209.715 130.048 274.227 405.504 144.179 615.219-129.638 209.715-405.299 274.227-614.81 144.179z" />
<glyph unicode="&#xe92a;" glyph-name="realtime" d="M321.126 782.234c-13.107-7.578-25.6-16.179-37.683-24.986l-90.112 89.907c24.371 19.661 50.995 37.478 79.053 52.429l48.742-117.35zM736.051 905.318l-48.333-116.326c24.781-13.107 47.923-29.286 68.813-47.104l89.293 89.088c-33.178 29.491-70.042 54.477-109.773 74.342zM70.042 701.747l117.76-48.947c5.53 9.011 11.878 18.227 18.227 26.829l-89.907 90.112c-17.408-21.299-32.768-44.032-46.080-67.994zM467.558 957.338c-36.454-3.072-71.885-9.83-105.677-20.070l48.742-117.555c18.432 5.12 37.478 9.011 56.934 11.059v126.566zM669.901 933.171c-37.478 12.493-77.005 20.89-117.76 24.166v-126.566c23.962-2.662 47.104-7.578 69.632-14.131l48.128 116.531zM58.163 220.262l92.979-271.565c3.277-11.059 11.878-12.493 18.637-3.072l62.259 86.426 2.458-1.843c85.197-55.501 191.078-82.33 275.251-82.739v0c295.322 0 506.47 226.918 506.47 505.856 0 129.024-48.947 246.374-128.614 335.872l-89.293-89.498c56.73-66.355 91.136-152.166 91.136-246.374 0-209.51-168.96-379.699-379.699-379.699v0.41c-84.173 0.205-140.493 19.661-203.571 60.211l63.693 89.498c6.554 9.421 2.662 16.794-9.011 16.589h-288.154c-11.469 0.205-18.022-9.011-14.541-20.070zM23.142 602.214c-6.349-22.528-11.059-64.717-14.131-64.717h127.795c1.229 0 2.662 4.506 4.096 11.264l-117.76 53.453zM641.024 333.312l-96.87 97.28c-7.168 7.373-11.264 17.203-11.264 27.443v215.040c0 21.504-17.408 38.707-38.707 38.707h-1.843c-21.504 0-38.707-17.408-38.707-38.707v-238.182c0-17.818 8.397-33.178 20.685-44.442l112.026-112.026c15.155-15.155 39.731-15.155 54.886 0v0c14.95 15.155 14.95 39.731-0.205 54.886z" />
<glyph unicode="&#xe92b;" glyph-name="connection" d="M512 951.808c-278.323 0-503.808-225.485-503.808-503.808s225.485-503.808 503.808-503.808 503.808 225.485 503.808 503.808-225.485 503.808-503.808 503.808zM376.832 95.334l123.699 288.768-251.904-45.261 395.674 461.824-119.603-281.395 250.675 36.659-398.541-460.595z" />
<glyph unicode="&#xe92c;" glyph-name="etc" d="M320.102 446.771c0-53.274-43.187-96.461-96.461-96.461s-96.461 43.187-96.461 96.461c0 53.274 43.187 96.461 96.461 96.461s96.461-43.187 96.461-96.461zM609.69 446.771c0-53.274-43.187-96.461-96.461-96.461s-96.461 43.187-96.461 96.461c0 53.274 43.187 96.461 96.461 96.461s96.461-43.187 96.461-96.461zM899.277 446.771c0-53.274-43.187-96.461-96.461-96.461s-96.461 43.187-96.461 96.461c0 53.274 43.187 96.461 96.461 96.461s96.461-43.187 96.461-96.461z" />
<glyph unicode="&#xe92d;" glyph-name="analysis2" d="M898.253 725.709c7.578-2.048 15.565-3.072 23.757-3.072 52.634 0 95.232 42.598 95.232 95.232s-42.598 95.027-95.232 95.027c-44.646 0-82.125-30.925-92.365-72.499v75.366h-6.349v-149.504h-143.36v149.504h-6.554v-149.504h-143.36v149.504h-6.554v-149.504h-143.36v149.504h-6.554v-149.504h-143.36v149.504h-6.554v-149.504h-136.192v151.142h-77.619v-971.981h49.357l0.614-0.614 0.41 0.614h919.347v77.414h-149.914v133.325h146.227v6.554h-146.227v144.384h146.227v6.554h-146.227v144.384h146.227v6.554h-146.227v144.384h146.227v6.554h-146.227v6.758l68.608 103.424zM846.438 759.91l-16.794-25.395v25.395h16.794c0 0 0 0 0 0zM829.645 794.931c2.458-10.24 6.758-19.866 12.288-28.467h-12.288v28.467zM823.296 759.91v-35.226l-72.294-109.363h-71.066v144.589h143.36zM339.763 412.57c-52.634 0-95.232-42.598-95.232-95.232 0-1.229 0.205-2.458 0.205-3.891h-14.336v144.384h143.36v-51.814c-10.65 4.301-21.914 6.554-33.997 6.554zM245.146 307.098c1.638-14.95 6.554-28.672 14.336-40.755l-29.082-33.178v73.728h14.746zM307.814 227.84c10.035-3.482 20.685-5.53 31.744-5.53 12.083 0 23.347 2.253 33.997 6.349v-65.946h-122.88l57.139 65.126zM380.109 231.322c29.286 13.926 50.586 42.189 54.272 75.776h89.088v-144.384h-143.36v68.608zM434.79 313.651c0 1.229 0.205 2.458 0.205 3.891 0 0.41 0 1.024 0 1.434l88.678 40.55v-45.67h-88.883zM413.696 377.344c-9.011 11.059-20.48 20.070-33.382 26.214v54.682h143.36v-30.72l-109.978-50.176zM530.022 458.035h60.621l-60.621-27.648v27.648zM596.582 470.118c0-1.843 0.205-3.686 0.205-5.53h-66.765v144.384h143.36v-45.466c-43.827-8.602-76.8-47.104-76.8-93.389zM523.469 464.589h-143.36v144.384h143.36v-144.384zM373.76 464.589h-143.36v144.384h143.36v-144.384zM223.846 464.589h-136.397v144.384h136.602v-144.384zM223.846 458.035v-144.384h-136.397v144.384h136.397zM223.846 307.098v-81.101l-55.706-63.283h-80.691v144.384h136.397zM162.611 156.16l-75.366-85.811v85.811h75.366zM245.146 156.16h128.614v-133.325h-143.36v116.531l14.746 16.794zM380.109 156.16h143.36v-133.325h-143.36v133.325zM530.022 156.16h143.36v-133.325h-143.36v133.325zM530.022 162.714v144.384h143.36v-144.384h-143.36zM530.022 313.651v48.742l92.774 42.394c13.312-13.926 30.925-23.962 50.586-27.853v-63.078h-143.36zM715.571 562.278c-7.578 2.048-15.565 3.072-23.757 3.072-4.096 0-7.987-0.41-11.878-0.819v44.442h66.765l-31.13-46.694zM673.382 759.91v-144.384h-143.36v144.384h143.36zM523.469 759.91v-144.384h-143.36v144.384h143.36zM373.76 759.91v-144.384h-143.36v144.384h143.36zM223.846 759.91v-144.384h-136.397v144.384h136.397zM223.846 131.994v-109.158h-95.642l95.642 109.158zM823.296 22.835h-143.36v133.325h143.36v-133.325zM823.296 162.714h-143.36v144.384h143.36v-144.384zM823.296 313.651h-143.36v62.259c3.891-0.41 7.782-0.819 11.878-0.819 48.538 0 88.474 36.25 94.413 83.149h37.069v-144.589zM823.296 464.589h-36.454c0.205 1.843 0.205 3.686 0.205 5.53 0 21.709-7.373 41.779-19.661 57.754l53.658 81.101h2.253v-144.384z" />
<glyph unicode="&#xe92e;" glyph-name="chart-candle" d="M986.317-0.512h-920.781v919.757c0 13.107-10.65 23.552-23.552 23.552s-23.552-10.65-23.552-23.552v-943.309c0-13.107 11.674-23.552 24.576-23.552h943.514c13.107 0 23.552 10.445 23.552 23.552s-10.65 23.552-23.757 23.552zM747.725 329.216h38.707v-164.864c0-12.083 10.24-22.118 23.552-22.118s23.552 9.83 23.552 22.118v164.864h36.454c14.336 0 24.986 10.035 24.986 23.142v147.251c0 13.107-10.65 22.118-24.986 22.118h-36.454v165.888c0 12.083-10.24 22.118-23.552 22.118s-23.552-9.83-23.552-22.118v-165.888h-38.707c-14.131 0-26.829-9.011-26.829-22.118v-147.251c0-13.107 12.698-23.142 26.829-23.142zM177.562 261.632h39.526v-163.43c0-12.083 10.24-22.118 23.552-22.118s23.552 9.83 23.552 22.118v163.43h35.635c14.336 0 23.757 11.674 23.757 24.781v147.251c0 13.107-9.421 24.576-23.757 24.576h-35.635v163.43c0 12.083-10.24 22.118-23.552 22.118s-23.552-9.83-23.552-22.118v-163.43h-39.526c-14.131 0-26.010-11.674-26.010-24.576v-147.251c0-13.107 11.878-24.781 26.010-24.781zM462.643 364.032h37.069v-91.75c0-12.083 10.24-22.118 23.552-22.118s23.552 9.83 23.552 22.118v91.75h37.888c14.336 0 25.6 9.626 25.6 22.528v294.707c0 13.107-11.264 26.829-25.6 26.829h-37.888v87.45c0 12.083-10.24 22.118-23.552 22.118s-23.552-9.83-23.552-22.118v-87.45h-37.069c-14.336 0-26.419-13.722-26.419-26.829v-294.707c0-12.902 12.083-22.528 26.419-22.528z" />
<glyph unicode="&#xe92f;" glyph-name="chart-gauge" d="M878.182 783.053l-91.136-83.558c63.078-68.813 97.894-157.696 97.894-250.266 0-204.595-166.502-371.098-371.098-371.098s-371.098 166.502-371.098 371.098 166.502 370.893 371.098 370.893v123.699c-272.794 0-494.797-221.798-494.797-494.797s222.003-494.592 494.797-494.592c272.794 0 494.797 222.003 494.797 494.797 0 123.494-46.285 242.074-130.458 333.824zM575.693 424.448l135.987 478.208-259.686-428.851 30.925-86.63z" />
<glyph unicode="&#xe930;" glyph-name="chart-scatter" d="M635.904 628.838c13.107 0 23.757 10.854 23.757 23.962s-10.65 23.757-23.757 23.757c-13.107 0-23.962-10.854-23.962-23.757 0-13.107 10.854-23.962 23.962-23.962zM665.805 416.461c-23.142 0-44.032-9.421-59.392-24.576-15.155-15.155-24.576-36.25-24.576-59.392s9.421-44.032 24.576-59.392c15.155-15.155 36.25-24.576 59.392-24.576s44.032 9.421 59.392 24.576c15.155 15.155 24.576 36.25 24.576 59.392s-9.421 44.032-24.576 59.392c-15.36 15.155-36.25 24.576-59.392 24.576zM297.37 159.846c23.142 0 44.237 9.421 59.392 24.576s24.576 36.25 24.576 59.392c0 23.142-9.421 44.237-24.576 59.392s-36.25 24.576-59.392 24.576c-22.938 0-44.032-9.626-59.392-24.576-15.155-15.155-24.576-36.25-24.576-59.392 0-22.938 9.421-44.032 24.576-59.392 15.155-15.155 36.25-24.576 59.392-24.576zM626.483 540.16c0-21.709 17.818-39.526 39.526-39.526 21.914 0 39.526 17.818 39.526 39.526 0 21.914-17.613 39.526-39.526 39.526-21.709 0.205-39.526-17.613-39.526-39.526zM731.75 429.158c13.107 0 23.757 10.65 23.757 23.757s-10.65 23.757-23.757 23.757c-13.107 0-23.757-10.65-23.757-23.757 0-13.312 10.65-23.757 23.757-23.757zM941.67 670.822c21.914 0 39.731 17.613 39.731 39.526s-17.818 39.526-39.731 39.526c-21.914 0-39.526-17.818-39.526-39.526 0-21.914 17.818-39.526 39.526-39.526zM816.128 414.413c-21.914 0-39.526-17.818-39.526-39.731s17.818-39.526 39.526-39.526c21.914 0 39.731 17.818 39.731 39.526 0 21.914-17.818 39.731-39.731 39.731zM986.317-5.222h-927.539v927.334c0 13.107-10.65 23.757-23.757 23.757s-23.757-10.65-23.757-23.757v-951.091c0-13.107 10.65-23.757 23.757-23.757h951.296c13.107 0 23.757 10.65 23.757 23.757 0 13.312-10.854 23.757-23.757 23.757zM333.21 337.613c13.107 0 23.757 10.65 23.757 23.757s-10.65 23.757-23.757 23.757c-13.107 0-23.757-10.65-23.757-23.757s10.65-23.757 23.757-23.757zM405.094 255.078c0-21.914 17.613-39.526 39.526-39.526 21.709 0 39.526 17.818 39.526 39.526 0 21.914-17.818 39.731-39.526 39.731-21.914 0-39.526-17.818-39.526-39.731zM204.8 83.046c12.902 0 23.757 10.854 23.757 23.757 0 13.107-10.854 23.962-23.757 23.962-13.107 0-23.757-10.854-23.757-23.962s10.65-23.757 23.757-23.757zM600.064 432.435c13.107 0 23.962 10.65 23.962 23.757s-10.854 23.757-23.962 23.757c-13.107 0-23.757-10.65-23.757-23.757 0-13.312 10.65-23.757 23.757-23.757zM515.686 253.235c0-13.107 10.65-23.757 23.757-23.757s23.757 10.65 23.757 23.757c0 13.107-10.65 23.757-23.757 23.757-13.312 0-23.757-10.65-23.757-23.757zM132.71 123.392c21.914 0 39.526 17.818 39.526 39.731s-17.818 39.526-39.526 39.526c-21.914 0-39.731-17.818-39.731-39.526 0-21.914 17.818-39.731 39.731-39.731zM471.654 322.253c22.938 0 44.032 9.421 59.187 24.576s24.576 36.25 24.576 59.392c0 22.938-9.421 44.032-24.576 59.187s-36.25 24.576-59.187 24.576c-23.142 0-44.237-9.421-59.392-24.576s-24.576-36.25-24.576-59.187c0-23.142 9.421-44.237 24.576-59.392s36.25-24.576 59.392-24.576zM849.715 451.891c23.142 0 44.237 9.216 59.392 24.576 15.155 15.155 24.576 36.25 24.576 59.392 0 22.938-9.421 44.032-24.576 59.187s-36.25 24.576-59.392 24.576c-22.938 0-44.032-9.421-59.187-24.576s-24.576-36.25-24.576-59.187c0-23.142 9.421-44.237 24.576-59.392 15.155-15.36 36.25-24.576 59.187-24.576z" />
<glyph unicode="&#xe931;" glyph-name="chart-radar" d="M910.336 511.898l-0.41-1.229-0.205-0.819-0.41-0.819-151.962-402.842 64.512-88.883c7.578-10.445 5.12-25.395-5.12-32.973-10.65-7.782-25.395-5.325-32.973 5.12l-64.922 89.088h-418.202l-64.512-88.678c-7.782-10.65-22.528-12.902-32.973-5.12-10.65 7.578-12.902 22.528-5.12 32.973l64.512 88.883-0.205 0.614-149.299 402.637-0.205 0.819-83.968 27.443c-12.493 4.096-19.251 17.408-15.155 29.901 4.096 12.288 17.203 19.046 29.696 14.95l83.968-27.238 1.229 0.819 357.376 265.011v83.149c0 12.902 10.65 23.757 23.757 23.757s23.757-10.65 23.757-23.757v-82.944l0.41-0.205 361.882-264.602 80.282 26.010c12.493 4.096 25.805-2.662 29.901-14.95 4.096-12.493-2.867-25.805-15.36-29.901l-80.282-26.214zM485.99 439.194v284.467l-266.854-197.632 266.854-86.835zM533.299 724.275v-284.877l269.926 87.654-269.926 197.222zM814.285 480.768l-266.24-86.63 153.805-211.558 112.435 298.189zM661.504 157.594l-151.962 208.896-151.757-208.896h303.718zM318.054 182.989l153.6 211.149-263.373 85.606 109.773-296.755z" />
<glyph unicode="&#xe932;" glyph-name="chart-area" d="M120.218 148.378l229.99 338.125c12.288 18.227 36.864 22.733 55.091 10.65 4.301-3.072 7.987-6.758 10.854-11.059l42.189-62.259 154.419 227.123c12.288 18.227 36.864 22.938 55.091 10.65 4.301-3.072 7.987-6.758 10.854-11.059l46.49-68.198 178.79 262.963c12.083 18.227 36.864 22.938 54.886 10.65 11.264-7.578 17.408-20.070 17.408-32.973h0.205v-700.211c0-22.118-17.818-39.936-39.731-39.936h-785.613c-22.118 0-39.936 17.818-39.936 39.936 0 10.035 3.277 18.637 9.011 25.6v0zM38.707-54.17h955.392c13.107 0 23.962 10.65 23.962 23.962s-10.854 23.962-23.962 23.962h-932.045v931.84c0 13.312-10.854 23.962-23.962 23.962-13.312 0-23.962-10.65-23.962-23.962v-956.006c0-13.312 10.854-23.962 23.962-23.962h0.614v0.205z" />
<glyph unicode="&#xe933;" glyph-name="chart-column" d="M993.894-6.042h-932.25v932.25c0 13.312-10.854 23.962-23.962 23.962-13.107-0.205-23.962-10.854-23.962-23.962v-956.211c0-13.312 10.854-23.962 23.962-23.962h956.416c13.312 0 23.962 10.65 23.962 23.962-0.205 13.312-10.854 23.962-24.166 23.962zM837.427 61.133h113.050c13.312 0 23.962 10.854 23.962 23.962v149.299c0 13.312-10.65 23.962-23.962 23.962h-113.050c-13.107 0-23.962-10.65-23.962-23.962v-149.299c0-13.312 10.854-23.962 23.962-23.962zM628.122 61.133h113.050c13.312 0 23.962 10.854 23.962 23.962v593.92c0 13.107-10.65 23.962-23.962 23.962h-113.050c-13.312 0-23.962-10.854-23.962-23.962v-593.92c0-13.312 10.65-23.962 23.962-23.962zM151.142 61.133h113.050c13.312 0 23.962 10.854 23.962 23.962v726.016c0 13.312-10.65 23.962-23.962 23.962h-113.050c-13.107 0-23.962-10.854-23.962-23.962v-726.016c0-13.312 10.854-23.962 23.962-23.962zM360.653 61.133h112.845c13.312 0 23.962 10.854 23.962 23.962v298.803c0 13.312-10.65 23.962-23.962 23.962h-112.845c-13.312 0-23.962-10.65-23.962-23.962v-298.803c0-13.312 10.65-23.962 23.962-23.962z" />
<glyph unicode="&#xe934;" glyph-name="chart-bar" d="M991.027-5.222h-930.406v930.406c0 13.107-10.65 23.757-23.757 23.757s-23.962-10.445-23.962-23.757v-954.368c0-13.107 10.65-23.757 23.757-23.757h954.368c13.107 0 23.757 10.65 23.757 23.757 0 13.312-10.445 23.962-23.757 23.962zM151.552 745.165h724.787c13.107 0 23.757 10.854 23.757 23.757v112.64c0 13.107-10.65 23.757-23.757 23.757h-724.787c-13.107 0-23.757-10.65-23.757-23.757v-112.64c0-12.902 10.65-23.757 23.757-23.757zM151.552 269.21h592.896c13.107 0 23.757 10.854 23.757 23.962v112.64c0 13.107-10.65 23.757-23.757 23.757h-592.896c-13.107 0-23.757-10.65-23.757-23.757v-112.64c0-13.312 10.65-23.962 23.757-23.962zM151.552 536.269h298.189c13.107 0 23.962 10.854 23.962 23.757v112.64c0 13.107-10.854 23.962-23.962 23.962h-298.189c-13.107 0-23.757-10.854-23.757-23.962v-112.64c0-13.107 10.65-23.757 23.757-23.757zM151.552 60.314h149.094c13.107 0 23.757 10.65 23.757 23.757v112.64c0 13.107-10.65 23.757-23.757 23.757h-149.094c-13.107 0-23.757-10.65-23.757-23.757v-112.64c0-13.107 10.65-23.757 23.757-23.757z" />
<glyph unicode="&#xe935;" glyph-name="chart-line" d="M213.811 586.65c34.406 0 64.717-23.552 73.523-56.32l90.317-26.214 86.016 140.083c11.469 18.842 35.635 24.576 54.477 13.107l1.843-1.024 147.046-100.762 117.35 206.848c-6.144 11.059-9.626 23.552-9.626 36.864 0 21.094 8.602 40.141 22.323 54.067 13.722 13.722 32.973 22.323 53.862 22.323 41.779 0 76.186-34.611 76.186-76.39 0-21.094-8.397-40.141-22.323-53.862-13.107-13.312-31.539-21.709-51.405-22.323l-137.83-243.098c-0.819-1.434-1.434-2.458-2.458-3.891-12.493-18.022-37.274-22.733-55.296-10.445l-148.48 101.581-52.838-86.016 52.019-14.95c4.71-1.434 8.602-3.482 12.493-6.144v0.205l169.37-124.314 90.317 13.722c11.674 27.853 39.526 46.694 70.246 46.694 21.094 0 40.141-8.602 53.862-22.323 13.926-13.926 22.323-32.768 22.323-54.067 0-41.779-34.406-76.186-76.186-76.186-21.094 0-40.141 8.602-53.862 22.323l-4.506 4.71-106.496-16.179c-10.035-1.434-20.685 0.819-29.491 7.168l-177.152 130.048-65.741 19.251-132.096-215.040c5.325-10.445 8.397-22.323 8.397-34.816 0-21.094-8.602-40.141-22.323-53.862s-32.768-22.323-53.862-22.323c-41.779 0-76.39 34.611-76.39 76.186 0 41.779 34.611 76.39 76.39 76.39h0.205l120.627 196.403-69.427 20.070c-13.517-12.493-31.744-20.070-51.405-20.070-41.779 0-76.39 34.611-76.39 76.39 0 41.574 34.406 76.186 76.39 76.186v0zM35.226-53.555h955.187c13.312 0 23.962 10.65 23.962 23.962s-10.854 23.962-23.962 23.962h-931.226v931.226c0 13.312-10.65 23.962-23.962 23.962-13.107 0-23.962-10.65-23.962-23.962v-955.187c0.205-13.312 10.854-23.962 23.962-23.962z" />
<glyph unicode="&#xe936;" glyph-name="analysis" d="M535.142 468.070c0 107.725-87.45 195.174-195.174 195.174s-195.174-87.45-195.174-195.174 87.45-195.174 195.174-195.174v195.174h195.174zM583.885 419.328h-195.174v-195.174c107.725 0 195.174 87.45 195.174 195.174zM635.29 555.11h212.992v-87.040h-212.992v87.040zM634.266 680.653h212.992v-84.582h-212.992v84.582zM635.29 426.496h212.992v-81.92h-212.992v81.92zM635.29 302.182h212.992v-81.92h-212.992v81.92zM1013.35-3.789h-1004.749v908.493h1004.749v-908.493zM92.365 79.974h837.222v740.966h-837.222v-740.966z" />
<glyph unicode="&#xe937;" glyph-name="statistics" d="M6.963 466.637c0 255.59 208.282 462.848 464.077 462.848 127.795 0 242.688-51.814 326.451-135.578l-328.704-327.27v-462.848c-249.037 0-461.824 207.258-461.824 462.848zM553.574 466.637l327.27 327.27c180.838-180.838 180.838-473.907 0-654.541l-327.27 327.27zM510.157 427.93v-462.848c124.518 0 236.954 45.261 327.27 135.578l-327.27 327.27z" />
<glyph unicode="&#xe938;" glyph-name="3d" d="M510.362 944.64l-456.090-248.832v-503.194l456.090-243.302 456.294 243.302v500.531c0 0-456.294 251.494-456.294 251.494zM883.712 462.541l-124.314-65.126v135.168l124.314 66.355v-136.397zM344.474 489.779l124.314-67.379v-132.096l-124.314 66.97v132.506zM381.747 564.326l123.904 66.56 129.843-70.042-124.928-66.765-128.819 70.246zM551.936 421.99l124.314 66.355v-134.349l-124.314-65.126v133.12zM723.558 607.744l-130.253 70.042 116.122 62.259 129.024-71.066c0 0-114.893-61.235-114.893-61.235zM623.002 787.763l-117.146-62.874-113.254 61.030 117.555 64.102c0 0 112.845-62.259 112.845-62.259zM305.766 738.406l112.435-60.621-123.29-65.946-110.797 60.416 121.651 66.15zM261.53 535.040v-132.915l-124.314 67.789v133.325c0 0 124.314-68.198 124.314-68.198zM137.216 375.501l124.314-67.789v-132.096l-124.314 66.765c0 0 0 133.12 0 133.12zM344.474 131.379v131.482l124.314-66.97v-130.458l-124.314 65.946zM551.936 195.482l124.314 65.126v-128.819l-124.314-66.355v130.048zM759.194 176.026v127.795l124.314 65.126v-126.566l-124.314-66.355z" />
<glyph unicode="&#xe939;" glyph-name="dashboard" d="M512.41 954.061c-279.142 0-506.061-226.918-506.061-505.856 0-62.464 11.674-124.109 34.816-183.501 5.325-13.517 11.264-27.034 17.818-40.141 40.346-81.715 101.99-151.142 178.176-200.704 14.131-9.216 26.010-16.179 37.274-22.118 72.909-38.912 155.238-59.597 237.978-59.597s165.069 20.48 237.978 59.392c11.264 5.939 23.142 13.107 37.274 22.118 76.186 49.766 137.83 119.194 178.176 200.704 6.554 13.107 12.493 26.624 17.818 40.141 23.142 59.392 34.816 121.037 34.816 183.501-0.205 279.142-227.123 506.061-506.061 506.061zM828.826 293.786c19.251 0 37.888-4.506 55.501-13.312-33.997-75.162-90.931-139.059-161.792-181.658-13.517 20.685-20.48 44.032-20.48 68.198-0.205 69.837 56.73 126.771 126.771 126.771zM639.181 166.81c0-33.997 9.216-66.97 26.829-96.461-98.304-40.346-209.101-40.346-307.2 0 17.613 29.286 26.829 62.464 26.829 96.461 0 104.448-84.992 189.645-189.645 189.645-26.214 0-52.019-5.734-76.8-16.998-9.83 35.43-14.95 71.885-14.95 108.749 0 225.075 183.091 408.166 408.166 408.166s408.166-183.091 408.166-408.166c0-36.659-4.915-73.114-14.95-108.749-24.781 11.264-50.586 16.998-76.8 16.998-104.653 0-189.645-84.992-189.645-189.645zM195.994 293.786c69.837 0 126.771-56.934 126.771-126.771 0-24.166-7.168-47.514-20.48-68.198-70.861 42.803-127.795 106.701-161.792 181.658 17.613 8.602 36.454 13.312 55.501 13.312zM512.41 715.674c27.034 0 48.947 21.914 48.947 48.947s-21.914 48.947-48.947 48.947c-27.034 0-48.947-21.914-48.947-48.947s21.914-48.947 48.947-48.947zM694.886 764.621c-22.733 13.107-53.862 4.506-66.765-18.022-13.517-23.347-5.53-53.248 18.022-66.97 7.373-4.301 15.77-6.554 24.371-6.554 17.408 0 33.792 9.421 42.394 24.371 6.554 11.264 8.192 24.576 4.915 37.069-3.482 12.902-11.469 23.552-22.938 30.106zM810.803 563.917c11.264 6.554 19.456 16.998 22.733 29.696 3.482 12.698 1.638 25.805-4.915 37.069-12.902 22.528-44.032 31.13-66.765 18.022-11.264-6.554-19.456-17.203-22.733-29.696-3.482-12.698-1.638-25.805 4.915-37.069 8.806-15.155 24.986-24.576 42.394-24.576 8.397 0 16.998 2.253 24.371 6.554zM877.568 448.205c0 26.829-21.914 48.947-48.947 48.947s-48.947-22.118-48.947-48.947c0-27.034 21.914-48.947 48.947-48.947 13.107 0 25.395 5.12 34.611 14.336 9.421 9.216 14.541 21.504 14.336 34.611zM378.675 679.629c23.347 13.517 31.334 43.622 17.818 66.97-12.902 22.528-44.237 30.925-66.765 18.022-11.264-6.554-19.456-16.998-22.733-29.696s-1.638-25.805 4.915-37.274c8.806-15.155 24.986-24.371 42.394-24.371 8.397-0.205 16.794 2.048 24.371 6.349zM262.758 648.704c-22.528 13.107-53.862 4.506-66.765-18.022-6.554-11.264-8.192-24.576-4.915-37.274 3.482-12.698 11.469-23.142 22.733-29.696 7.373-4.301 15.974-6.554 24.576-6.554 17.408 0 33.587 9.421 42.394 24.371 6.554 11.264 8.192 24.576 4.915 37.069-3.482 13.107-11.469 23.552-22.938 30.106zM195.994 497.152c-27.034 0-48.947-21.914-48.947-48.947s21.914-48.947 48.947-48.947c27.034 0 48.947 21.914 48.947 48.947 0 26.829-21.914 48.742-48.947 48.947zM526.131 495.514c-57.549 67.174-138.445 130.253-141.926 132.915l-32.563 25.395 10.854-39.936c1.229-4.301 28.467-103.219 68.198-182.067-1.638-6.758-2.458-12.902-2.458-19.046 0-46.285 37.683-84.173 84.173-84.173 15.36 0 30.31 4.301 42.598 11.878l4.301 2.458c23.142 15.77 37.069 41.779 37.069 69.632 0 41.779-29.901 76.39-70.246 82.944z" />
<glyph unicode="&#xe93a;" glyph-name="cursor" d="M1006.387 449.434l-247.808 206.438v-165.274h-206.438v206.643h165.274l-206.438 247.808-206.438-247.808h165.274v-206.438h-206.643v165.274l-247.808-206.643 247.808-206.438v165.274h206.438v-206.438h-165.274l206.438-247.808 206.438 247.808h-165.274v206.234h206.438v-165.274l248.013 206.643z" />
<glyph unicode="&#xe93b;" glyph-name="feed" d="M315.187 134.042c0-63.488-51.61-114.893-115.098-114.893s-115.098 51.405-115.098 114.893 51.61 114.893 115.098 114.893c63.693 0 115.098-51.405 115.098-114.893zM84.992 579.072v-170.394c214.221-2.253 388.096-175.718 390.144-389.734h170.598c-2.253 308.429-251.904 557.875-560.742 560.128zM84.992 698.266c374.579-1.638 677.888-304.128 679.117-679.322h170.598c-1.024 468.378-380.723 848.077-849.715 849.715 0 0 0-170.394 0-170.394z" />
<glyph unicode="&#xe93c;" glyph-name="filter" d="M941.261 800.461c43.827 95.437-310.067 112.435-431.718 112.435-116.122 0-475.546-16.998-431.718-112.435 20.070-44.032 352.666-511.386 352.666-511.386v-207.667l158.31-118.579v326.246c0 0 332.39 467.354 352.461 511.386zM509.747 836.096c167.936 0 322.355-22.733 322.355-48.538s-154.214-46.694-322.355-46.694-318.259 20.89-318.259 46.694 150.323 48.538 318.259 48.538z" />
<glyph unicode="&#xe93d;" glyph-name="column" d="M210.739 314.675v-73.728h-149.504v675.84h675.84v-188.416h-75.776v112.64h-526.336v-526.336h75.776zM548.659 578.867h151.552v73.728h-151.552v-73.728zM548.659-23.245h151.552v75.776h-151.552v-75.776zM775.987 578.867v73.728h186.368v-186.368h-73.728v112.64h-112.64zM286.515 390.451h75.776v-149.504h-75.776v149.504zM436.019-23.245h-149.504v188.416h75.776v-112.64h73.728v-75.776zM962.355 240.947h-73.728v149.504h73.728v-149.504zM812.851 52.531h75.776v112.64h73.728v-188.416h-149.504v75.776zM286.515 466.227v186.368h188.416v-73.728h-112.64v-112.64h-75.776z" />
<glyph unicode="&#xe93e;" glyph-name="server2" d="M953.958 247.706h-876.749v-278.938h876.749v278.938zM156.877 48.435l34.406 119.603h50.79l-34.406-119.603h-50.79zM239.206 48.435l34.406 119.603h50.79l-34.406-119.603h-50.79zM321.536 48.435l34.406 119.603h50.79l-34.406-119.603c0 0-50.79 0-50.79 0zM403.866 48.435l34.406 119.603h50.79l-34.406-119.603h-50.79zM536.986 48.435h-50.79l34.406 119.603h50.79c0 0-34.406-119.603-34.406-119.603zM834.355 68.301c-21.914 0-39.936 17.818-39.936 39.936s17.818 39.936 39.936 39.936c22.118 0 39.936-17.818 39.936-39.936s-17.818-39.936-39.936-39.936zM874.291 845.517v-438.272h-717.414v438.272h717.414zM953.958 925.184h-876.749v-597.811h876.749v597.811zM435.814 626.381l-102.195 99.533-30.72-29.901 71.475-69.632-71.475-69.632 30.72-29.901 102.195 99.533zM714.752 566.579h-199.27v-39.936h199.27v39.936z" />
<glyph unicode="&#xe93f;" glyph-name="server1" d="M908.493 600.166v-157.286h-786.842v157.286h786.842zM987.136 679.014h-944.128v-314.778h944.128v314.778zM160.973 482.202l33.997 78.643h50.176l-33.997-78.643h-50.176zM242.278 482.202l33.997 78.643h50.176l-33.997-78.643h-50.176zM323.584 482.202l33.997 78.643h50.176l-33.997-78.643c0 0-50.176 0-50.176 0zM404.89 482.202l33.997 78.643h50.176l-33.997-78.643h-50.176zM536.371 482.202h-50.176l33.997 78.643h50.176c0 0-33.997-78.643-33.997-78.643zM829.85 482.202c-21.709 0-39.322 17.613-39.322 39.322s17.613 39.322 39.322 39.322c21.709 0 39.322-17.613 39.322-39.322s-17.613-39.322-39.322-39.322zM908.493 206.95v-157.286h-786.842v157.286h786.842zM987.136 285.594h-944.128v-314.778h944.128v314.778zM160.973 88.781l33.997 78.643h50.176l-33.997-78.643h-50.176zM242.278 88.781l33.997 78.643h50.176l-33.997-78.643h-50.176zM323.584 88.781l33.997 78.643h50.176l-33.997-78.643c0 0-50.176 0-50.176 0zM404.89 88.781l33.997 78.643h50.176l-33.997-78.643h-50.176zM536.371 88.781h-50.176l33.997 78.643h50.176c0 0-33.997-78.643-33.997-78.643zM829.85 88.781c-21.709 0-39.322 17.613-39.322 39.322s17.613 39.322 39.322 39.322c21.709 0 39.322-17.613 39.322-39.322s-17.613-39.322-39.322-39.322zM216.269 718.336h-94.618l157.286 196.608h472.064l157.286-196.608h-94.618l-104.858 117.965h-387.686c0 0-104.858-117.965-104.858-117.965z" />
<glyph unicode="&#xe940;" glyph-name="unhappy" d="M509.952 843.264c220.16 0 399.36-179.2 399.36-399.36s-179.2-399.36-399.36-399.36-399.36 179.2-399.36 399.36 179.2 399.36 399.36 399.36zM509.952 923.136c-264.602 0-479.232-214.63-479.232-479.232s214.63-479.232 479.232-479.232 479.232 214.63 479.232 479.232-214.63 479.232-479.232 479.232zM509.952 364.032c-93.184 0-165.478-65.331-203.366-111.616l18.842-23.142c51.405 32.768 109.158 52.224 184.525 52.224s133.325-19.456 184.525-52.224l18.842 23.142c-37.888 46.285-110.182 111.616-203.366 111.616zM370.074 603.648c-32.973 0-59.802-26.829-59.802-59.802s26.829-59.802 59.802-59.802 59.802 26.829 59.802 59.802-26.624 59.802-59.802 59.802zM649.626 603.648c-32.973 0-59.802-26.829-59.802-59.802s26.829-59.802 59.802-59.802 59.802 26.829 59.802 59.802-26.624 59.802-59.802 59.802z" />
<glyph unicode="&#xe941;" glyph-name="message" d="M8.192-17.51c40.96 81.51 86.63 193.536 84.173 271.565-55.296 66.56-86.426 152.576-86.426 239.821 0 246.579 239.206 426.803 506.88 426.803 266.035 0 506.88-178.995 506.88-426.803 0-258.048-284.467-499.302-674.611-403.456-70.861-43.622-227.123-88.064-336.896-107.93zM512.819 821.965c-225.075 0-408.166-147.251-408.166-328.090 0-95.232 41.165-155.034 99.123-214.221-11.878-87.859-40.141-164.045-40.141-164.045s83.763 22.118 178.79 77.619c363.725-96.461 578.765 113.459 578.765 300.646-0.205 181.043-183.296 328.090-408.371 328.090zM389.12 496.742c0-38.457-31.175-69.632-69.632-69.632s-69.632 31.175-69.632 69.632c0 38.457 31.175 69.632 69.632 69.632s69.632-31.175 69.632-69.632zM585.523 496.742c0-38.457-31.175-69.632-69.632-69.632s-69.632 31.175-69.632 69.632c0 38.457 31.175 69.632 69.632 69.632s69.632-31.175 69.632-69.632zM782.131 496.742c0-38.457-31.175-69.632-69.632-69.632s-69.632 31.175-69.632 69.632c0 38.457 31.175 69.632 69.632 69.632s69.632-31.175 69.632-69.632z" />
<glyph unicode="&#xe942;" glyph-name="info" d="M512.205 855.757c225.28 0 407.552-182.272 407.552-407.552s-182.272-407.552-407.552-407.552c-225.28 0-407.552 182.272-407.552 407.552s182.272 407.552 407.552 407.552zM512.205 954.061c-279.347 0-505.856-226.509-505.856-505.856s226.509-505.856 505.856-505.856 505.856 226.509 505.856 505.856-226.509 505.856-505.856 505.856v0zM580.813 171.93h-137.011v339.968h137.011v-339.968zM512.205 576.41c-40.755 0-73.933 33.178-73.933 73.933s33.178 73.933 73.933 73.933c40.755 0 73.933-33.178 73.933-73.933s-32.973-73.933-73.933-73.933z" />
<glyph unicode="&#xe943;" glyph-name="info-message" d="M585.523 279.654h-121.446v258.048h121.446v-258.048zM524.698 594.842c-36.25 0-65.536 29.286-65.536 65.536s29.286 65.536 65.536 65.536c36.25 0 65.536-29.286 65.536-65.536s-29.286-65.536-65.536-65.536zM9.421-17.306c40.96 81.306 86.221 192.922 83.968 270.746-55.091 66.355-86.221 151.962-86.221 239.206 0 245.76 238.387 425.37 505.242 425.37 265.216 0 505.242-178.381 505.242-425.37 0-257.229-283.443-497.664-672.358-402.022-70.656-43.827-226.304-87.859-335.872-107.93zM512.41 819.507c-224.461 0-406.938-146.637-406.938-327.066 0-94.822 40.96-154.624 98.714-213.606-11.674-87.45-39.936-163.43-39.936-163.43s83.354 22.118 178.176 77.414c362.496-96.051 576.922 113.050 576.922 299.622 0 180.429-182.477 327.066-406.938 327.066z" />
<glyph unicode="&#xe944;" glyph-name="report" d="M790.528 246.272h-389.53v72.704h389.53v-72.704zM790.528 387.584h-389.53v72.704h389.53v-72.704zM790.528 526.438h-389.53v72.499h389.53v-72.499zM305.152 46.387v641.434h578.97c0 0 0-322.97 0-399.77 0-123.29-169.574-81.92-169.574-81.92s40.141-159.744-77.414-159.744c-77.619 0-45.67 0-331.981 0zM980.992 291.738v492.749h-772.71v-834.97h430.285c164.864 0 342.426 193.536 342.426 342.221zM129.229 48.435v812.032h752.435v84.992h-837.018v-897.024h84.582z" />
<glyph unicode="&#xe945;" glyph-name="menu" d="M966.246 651.981h-908.493v143.36h908.493v-143.36zM966.246 519.68h-908.493v-143.36h908.493v143.36zM966.246 244.019h-908.493v-143.36h908.493v143.36z" />
<glyph unicode="&#xe946;" glyph-name="report-build" d="M420.864 554.086c58.573 254.771 350.003 306.79 350.003 306.79v85.811l173.875-173.466-173.875-173.67v85.811c0 0-225.485 2.048-350.003-131.277zM775.373 501.453c0-95.027 0-186.778 0-216.474 0-137.626-169.984-82.534-169.984-82.534s52.019-165.888-76.39-165.888c-69.837 0-104.858 0-362.701 0v723.763h280.781c28.058 32.154 61.235 61.44 99.123 87.245h-466.944v-898.253h451.379c148.685 0 331.981 194.15 331.981 328.090v311.091c-40.141-40.141-16.384-16.179-87.245-87.040zM682.394 296.653h-422.912v65.331h422.912v-65.331zM682.394 439.194h-422.912v65.331h422.912v-65.331z" />
<glyph unicode="&#xe947;" glyph-name="jennifer-server" d="M846.643-39.424c40.55 16.179 122.266 141.926 146.842 225.075 24.371 83.149 56.32 70.861-34.202 173.67-90.522 102.605-122.266 212.787-176.128 225.075s-161.382-10.854-151.552 77.21c0 0 24.166 30.515 29.491 54.477 9.83 44.646 4.915 64.102 12.083 77.619 7.373 13.517 6.144 24.371-2.458 57.549-8.602 32.973-47.718 137.011-156.467 88.064-108.954-48.947-55.091-178.586-39.117-199.27s42.803-47.718 45.261-65.946c2.458-18.432-7.373-50.176-56.32-81.92s-113.664-90.522-123.494-176.128c-9.83-85.606-13.517-99.123-57.344-52.634-44.032 46.49-69.632 95.437-84.378 113.664-14.746 18.432-111.206 25.6-137.011 32.973-25.6 7.373-63.488 19.661-56.32 7.373 7.373-12.288 58.778-20.89 83.149-44.032 24.371-23.347 55.091-19.661 74.547-26.829 19.456-7.373 57.344-47.718 63.488-79.462s12.288-62.259 7.373-74.547c-4.915-12.288 13.517-26.829 30.515-48.947 17.203-21.914 75.776-109.978 100.352-107.725 24.371 2.458 44.032 6.144 68.403 36.659s36.659-8.602 31.744-35.43c-1.843-10.035-15.565-51.61-31.334-112.23-9.216-35.226 17.203-69.632 53.658-69.632 0-0.41 322.765-9.421 359.219 5.325zM779.264 218.419c8.602 58.778 29.286 111.206 29.286 111.206s9.83 25.6 32.973 6.144c23.142-19.661 84.378-78.234 86.835-97.894s-15.974-140.698-31.744-163.84c-15.974-23.347-35.43-55.091-77.005-29.286s-48.742 115.098-40.346 173.67z" />
<glyph unicode="&#xe948;" glyph-name="user" d="M864.461 193.638c-137.216 31.539-264.806 59.392-202.957 175.923 188.211 354.918 49.766 544.563-148.89 544.563-202.752 0-337.715-197.018-148.89-544.563 63.693-117.35-68.813-144.998-202.957-175.923-137.216-31.744-126.771-104.038-126.771-235.11h956.826c0.205 131.072 10.65 203.366-126.362 235.11z" />
<glyph unicode="&#xe949;" glyph-name="rule" d="M1010.893 448.205c0-274.432-222.413-497.050-497.050-497.050s-496.845 222.618-496.845 497.050 222.618 497.050 497.050 497.050 496.845-222.618 496.845-497.050zM914.432 448.205c0 221.389-179.2 400.589-400.384 400.589-221.389 0-400.384-179.2-400.384-400.384 0-221.389 179.2-400.384 400.384-400.384 221.389-0.205 400.384 178.995 400.384 400.179zM712.294 661.402l-279.962-280.166-121.242 121.446-89.907-89.907 211.354-211.354 370.074 370.074-90.317 89.907z" />
<glyph unicode="&#xe94a;" glyph-name="profile" d="M293.478 364.237l34.816 212.173 35.635-152.781c3.482-15.565 25.19-17.408 31.13-2.253l32.154 82.33c0 0 15.565-36.25 18.432-42.394s6.144-10.24 16.179-10.24h39.526v32.768h-28.877l-30.925 69.222c-5.734 13.517-24.986 13.107-30.31-0.41l-27.238-69.837-42.189 186.368c-3.891 17.613-29.286 16.589-32.154-1.024l-34.816-215.45-35.635 132.506c-3.891 15.77-26.419 16.794-31.334 1.024l-26.624-102.81h-30.31v-32.768h43.213c5.939 0 12.288 4.71 13.926 10.445l15.155 54.477 38.298-152.576c4.301-17.408 29.286-16.179 31.949 1.229zM877.158 211.456c18.842 29.696 29.696 64.922 29.696 102.605 0 105.882-86.221 192.102-192.102 192.102s-192.102-86.221-192.102-192.102c0-105.882 86.221-192.102 192.102-192.102 35.84 0 69.427 9.83 98.099 27.034l129.638-129.638 63.283 63.283-128.614 128.819zM714.957 193.638c-66.355 0-120.422 54.067-120.422 120.422s54.067 120.422 120.422 120.422c66.355 0 120.422-54.067 120.422-120.422s-54.067-120.422-120.422-120.422zM473.498 206.746h-459.776v622.797h805.888v-272.794c-25.6 11.059-53.248 18.227-82.33 20.685v169.779h-641.024v-458.342h355.738c2.458-28.877 10.035-56.73 21.504-82.125zM601.088 75.674h-380.928l82.33 82.33h199.27c25.805-35.021 59.802-63.488 99.328-82.33z" />
<glyph unicode="&#xe94b;" glyph-name="monitoring" d="M683.418 639.488c-2.662 3.482-6.963 5.325-11.469 5.12-7.373-0.614-13.312-6.349-23.757-23.757l-106.291-175.923 14.95-4.71c7.987-2.458 15.77-5.53 22.938-8.806s14.336-7.373 21.504-11.878l13.107-8.397 66.56 194.56c6.349 19.661 7.168 27.853 2.458 33.792zM509.952 938.291c-266.445 0-483.328-216.883-483.328-483.328 0-25.19 1.843-49.766 5.734-73.933 23.552-153.395 119.603-283.034 251.699-353.28 67.379-35.84 144.384-56.115 225.894-56.115s158.31 20.275 225.894 56.115c132.096 70.246 228.147 199.885 251.699 353.28 3.686 24.166 5.734 48.742 5.734 73.933 0 266.445-216.883 483.328-483.328 483.328zM511.386 240.947c-32.563 0-58.778 26.419-58.778 58.778 0 32.563 26.419 58.982 58.778 58.982 32.563 0 58.778-26.419 58.778-58.982 0-32.358-26.214-58.778-58.778-58.778zM918.118 381.030h-286.72c-29.491 33.997-72.909 55.501-121.446 55.501s-91.955-21.504-121.446-55.501h-286.72c-4.301 23.962-6.554 48.742-6.554 73.933 0 228.762 185.958 414.925 414.72 414.925s414.925-186.163 414.925-414.925c0-25.19-2.253-49.971-6.758-73.933zM863.437 483.84c12.288 0 21.709 10.65 20.275 22.733-24.166 184.525-181.862 326.246-372.326 326.246-190.259 0-347.955-141.517-372.122-325.837-1.638-12.288 7.987-23.142 20.48-23.142v0c10.24 0 19.046 7.578 20.48 17.818 0.205 1.638 0.41 3.277 0.614 4.71 0.819 6.349 6.963 10.445 13.107 9.011 7.578-1.638 17.408-3.891 24.781-5.53 5.939-1.229 11.674 2.253 12.902 8.192v0.205c1.229 5.939-2.253 11.674-8.192 12.902l-25.19 5.734c-6.144 1.434-9.83 7.578-7.987 13.722 12.493 43.008 33.587 82.739 61.030 116.736 3.891 4.915 11.264 5.325 15.974 1.024l19.456-18.432c4.301-4.096 11.264-3.891 15.36 0.41l0.205 0.205c4.096 4.301 3.891 11.264-0.41 15.36l-19.866 18.637c-4.506 4.301-4.506 11.469 0 15.77 36.659 34.611 81.306 61.235 130.662 76.595 5.939 1.843 12.288-1.843 13.722-7.987l6.349-27.648c1.434-5.734 7.168-9.421 12.902-8.192h0.205c5.939 1.434 9.421 7.168 8.192 13.107l-6.349 27.853c-1.434 6.144 2.662 12.083 8.806 13.107 17.818 3.072 36.25 4.506 55.091 4.506 26.214 0 51.61-3.072 75.981-8.806 6.144-1.434 9.626-7.782 7.782-13.722l-8.602-27.853c-1.843-5.734 1.434-11.878 7.168-13.517h0.205c5.734-1.843 11.878 1.434 13.517 7.168l8.602 27.853c1.843 5.939 8.397 9.216 14.336 6.963 41.574-15.974 79.258-39.936 111.002-70.042 4.506-4.301 4.506-11.674-0.205-15.77l-21.299-19.661c-4.301-4.096-4.71-10.854-0.614-15.36l0.205-0.205c4.096-4.301 10.854-4.71 15.36-0.614l21.299 19.661c4.71 4.301 11.878 3.686 15.77-1.229 27.238-33.997 48.128-73.318 60.621-116.122 1.843-5.939-2.048-12.288-7.987-13.722l-27.853-6.349c-5.939-1.229-9.421-7.168-8.192-12.902v-0.205c1.229-5.939 7.168-9.421 12.902-8.192l27.443 6.144c6.144 1.434 12.288-2.867 13.107-9.011 0.205-1.638 0.41-3.482 0.614-5.12 1.229-10.035 9.83-17.613 20.070-17.613 0.41 0.41 0.614 0.41 0.614 0.41z" />
<glyph unicode="&#xe94c;" glyph-name="device" d="M923.648 799.846c0 28.467-23.142 51.814-51.814 51.814h-712.704c-28.467 0-51.814-23.142-51.814-51.814v-501.76h816.333v501.76zM853.811 367.923h-676.659v413.696h676.659v-413.696zM926.31 259.174h-821.658l-77.414-135.987c-9.216-15.974-9.011-35.635 0.205-51.61s26.214-25.805 44.646-25.805h887.194c18.432 0 35.43 9.83 44.851 25.805s9.216 35.635 0 51.61l-77.824 135.987zM416.973 119.501l20.685 60.826h156.467l20.685-60.826h-197.837z" />
<glyph unicode="&#xe94d;" glyph-name="caution2" d="M481.28 875.008l-463.667-803.226c-14.541-25.19 3.686-56.73 32.768-56.73h927.539c29.082 0 47.309 31.539 32.768 56.73l-464.077 803.226c-14.541 25.19-50.79 25.19-65.331 0zM463.462 590.336h101.171v-306.995h-101.171v306.995zM514.048 125.030c-30.106 0-54.682 24.371-54.682 54.682 0 30.106 24.371 54.682 54.682 54.682 30.106 0 54.682-24.371 54.682-54.682-0.205-30.31-24.576-54.682-54.682-54.682z" />
<glyph unicode="&#xe94e;" glyph-name="tool" d="M1003.315 801.894l-101.786-101.99-47.104-3.072-56.934 56.934 1.434 49.357 101.581 101.581c-65.126 19.046-149.709 13.926-200.909-37.478-45.466-45.466-69.018-110.592-61.44-170.598 1.434-11.878-1.229-23.757-7.987-33.587-16.179-22.938-43.418-60.826-78.234-105.677l17.203-17.613c40.346-40.141 35.43-75.776 15.155-117.146l21.504-21.504c58.573 51.405 114.688 96.461 157.082 127.181 8.192 5.939 18.637 7.987 28.672 6.144 59.802-10.854 120.218 16.179 168.55 64.512 51.405 51.405 62.259 137.83 43.213 202.957zM377.446 357.069c-1.024-1.024-2.048-2.253-3.277-3.277-97.28-97.28-208.896-202.342-268.493-257.434-28.672-26.624-31.13-71.066-5.53-100.557 28.467-32.768 79.053-33.382 108.339-1.434 64.512 70.861 183.296 199.27 269.312 286.515 12.698 12.902 25.805 25.805 39.117 38.707l-20.070 18.227c-54.477-26.010-77.824-21.299-119.398 19.251zM184.115 27.75c-11.674-11.264-31.539-9.421-44.032 3.686-12.493 13.312-13.107 32.973-1.434 44.237s31.539 9.421 44.032-3.686c12.493-13.312 13.107-33.178 1.434-44.237zM844.39 158.822c-3.277 5.325-8.397 9.626-14.336 12.083l-38.298 6.144c-3.686 1.434-6.758 3.686-9.626 6.349l-232.038 230.195c-3.072 3.072-3.072 7.987 0 10.854 26.010 25.6 26.214 67.584 0.614 93.389l-22.733 23.142c-3.482 3.482-8.192 4.915-13.107 4.096-6.758-1.229-13.722-1.229-21.094 0.205-22.733 4.301-40.96 22.528-45.67 45.261-1.434 6.963-1.434 13.722-0.614 20.070 1.024 6.554-1.638 12.902-6.144 17.613-37.274 37.888-191.078 193.331-267.674 270.746-24.166 24.371-63.488 24.576-88.064 0.41l-58.573-57.958c-24.371-24.166-24.576-63.488-0.41-88.064l267.878-270.746c4.506-4.71 11.264-7.168 17.613-5.939 9.011 1.638 19.046 1.229 29.082-2.253 16.998-5.734 30.72-19.456 36.25-36.659 3.277-10.24 3.686-20.070 1.843-29.286-1.229-5.939 0.41-12.083 4.506-16.589l19.456-19.866c25.6-26.010 67.584-26.214 93.389-0.614 3.277 3.277 8.397 3.277 11.674 0l231.834-229.99c3.482-3.482 6.144-7.578 7.987-11.878l3.072-37.069c2.048-4.915 5.53-9.011 9.83-11.674l141.926-112.435 49.766 48.538-108.339 141.926z" />
<glyph unicode="&#xe94f;" glyph-name="report-link" d="M903.578 433.459c31.539 0 57.139-25.6 57.139-57.139v-355.738c0-21.094-16.998-38.093-38.093-38.093v0h-831.693c-21.094 0-38.093 16.998-38.093 38.093v831.693c0 21.094 16.998 38.093 38.093 38.093h355.533c31.539 0 57.139-25.6 57.139-57.139v0c0-31.539-25.6-57.139-57.139-57.139h-279.347v-679.322h679.322v279.552c0 31.539 25.6 57.139 57.139 57.139v0zM538.214 467.661c14.95-14.95 38.912-14.95 53.862 0l292.454 292.454v-133.734c0-21.094 17.203-38.093 38.093-38.093 21.094 0 38.093 16.998 38.093 38.093v225.69c0 21.094-16.998 38.093-38.093 38.093h-225.69c-21.094 0-38.093-16.998-38.093-38.093s16.998-38.093 38.093-38.093h133.734l-292.454-292.454c-14.95-14.746-14.95-38.912 0-53.862z" />
<glyph unicode="&#xe950;" glyph-name="was" d="M989.184 301.978c0-53.862-43.827-97.69-97.69-97.69h-754.893c-53.862 0-97.69 43.827-97.69 97.69v500.941c0 53.862 43.827 97.69 97.69 97.69h754.893c53.862 0 97.69-43.827 97.69-97.69v-500.941zM901.12 802.714c0 7.782-6.349 13.926-13.926 13.926h-752.435c-7.782 0-13.926-6.349-13.926-13.926v-502.579c0-7.782 6.349-13.926 13.926-13.926h752.435c7.782 0 13.926 6.349 13.926 13.926v502.579zM693.453 50.688h-70.861v139.264h-208.896v-139.264h-69.222c-30.925 0-55.91-28.672-55.91-57.344h460.595c0 28.672-24.986 57.344-55.706 57.344z" />
<glyph unicode="&#xe951;" glyph-name="ws" d="M384.819 108.442c-42.189 0-76.39 34.202-76.39 76.39s34.202 76.39 76.39 76.39 76.39-34.202 76.39-76.39-34.202-76.39-76.39-76.39zM384.819 217.805c-18.022 0-32.768-14.746-32.768-32.768s14.746-32.768 32.768-32.768 32.768 14.746 32.768 32.768c0 18.022-14.746 32.768-32.768 32.768zM240.23 793.702h289.382v-43.622h-289.382v43.622zM240.23 679.014h289.382v-43.622h-289.382v43.622zM168.141 5.632c-3.482 0-8.397 5.939-8.397 12.493v854.426c0 6.349 4.71 15.77 8.397 15.77h433.562c3.482 0 4.506-9.421 4.506-15.77v-360.243c20.48 8.192 45.056 14.131 65.536 17.408v342.835c0 42.189-29.901 81.306-70.042 81.306h-433.562c-40.346 0-75.981-39.117-75.981-81.306v-854.426c0-42.394 35.635-78.029 75.981-78.029h433.562c21.504 0 40.755 9.83 54.067 25.395-35.021 7.373-67.584 17.613-96.666 40.141h-390.963zM960.922 244.838c0 136.397-110.592 243.098-243.098 243.098-131.482 0-243.098-105.472-243.098-243.098 0-138.445 112.23-243.098 243.098-243.098 131.686 0 243.098 105.882 243.098 243.098zM602.726 334.131c-4.71-22.323-7.578-46.080-8.397-70.656h-69.837c3.072 32.563 14.336 62.874 31.539 88.883 14.95-7.578 30.72-13.517 46.694-18.227zM594.33 226.202c1.024-24.781 4.096-48.742 9.011-71.066-16.179-4.71-31.949-10.65-46.899-18.227-17.408 26.010-28.672 56.525-31.949 89.293h69.837zM613.171 119.296c5.734-17.408 13.312-34.611 22.733-50.381-20.48 9.626-39.117 22.733-55.091 38.502 10.035 4.506 20.89 8.397 32.358 11.878zM736.461 170.291v55.91h67.994c-1.024-21.914-3.686-42.803-7.987-62.464-19.251 3.686-39.322 5.734-60.006 6.554zM786.432 127.693c-9.216-26.214-25.805-60.006-50.176-73.318v78.643c17.408-0.614 34.202-2.458 50.176-5.325zM736.461 263.475v55.296c20.89 0.819 41.37 3.072 60.826 6.758 3.891-19.456 6.554-40.346 7.373-61.85l-68.198-0.205zM736.461 356.045v81.715c24.986-13.722 41.984-49.152 51.2-76.186-16.384-2.867-33.587-4.71-51.2-5.53zM699.187 437.555v-81.51c-17.408 0.819-34.406 2.662-50.586 5.53 9.011 27.034 25.805 62.054 50.586 75.981zM699.187 318.771v-55.296h-67.584c0.819 21.504 3.277 42.394 7.373 61.85 19.251-3.482 39.322-5.734 60.211-6.554zM639.59 163.738c-4.301 19.661-6.963 40.755-7.987 62.464h67.379v-55.91c-20.48-0.819-40.346-3.072-59.392-6.554zM699.187 133.018v-78.234c-23.962 13.517-40.55 46.899-49.562 72.909 15.77 2.867 32.358 4.506 49.562 5.325zM822.886 119.296c11.264-3.277 21.914-7.373 31.949-11.674-15.77-15.77-34.202-28.672-54.477-38.298 9.626 15.565 16.794 32.768 22.528 49.971zM832.717 155.136c4.915 22.323 7.987 46.285 9.011 71.066h69.222c-3.072-32.768-14.336-63.078-31.744-89.088-15.155 7.578-30.515 13.312-46.49 18.022zM879.616 352.154c17.203-25.805 28.262-56.115 31.334-88.474h-69.222c-0.819 24.576-3.891 48.333-8.397 70.656 15.974 4.506 31.539 10.445 46.285 17.818zM855.245 381.85c-9.83-4.506-20.275-8.397-31.334-11.674-5.53 17.203-12.493 33.997-21.504 49.357 19.866-9.421 37.683-22.323 52.838-37.683zM633.856 419.942c-9.011-15.77-16.179-32.563-21.709-49.766-11.264 3.482-21.914 7.373-31.744 11.878 15.36 15.565 33.587 28.467 53.453 37.888z" />
<glyph unicode="&#xe952;" glyph-name="server" d="M746.291-60.109h-437.453c-40.55 0-73.523 34.816-73.523 77.414v861.798c0 42.598 32.973 77.414 73.523 77.414h437.248c40.55 0 73.523-34.816 73.523-77.414v-861.594c0.205-42.803-32.768-77.619-73.318-77.619zM308.838 890.368c-3.482 0-7.578-4.915-7.578-11.264v-861.594c0-6.554 3.891-11.264 7.578-11.264h437.248c3.482 0 7.578 4.915 7.578 11.264v861.594c0 6.554-3.891 11.264-7.578 11.264h-437.248zM527.565 108.646c-42.394 0-77.005 34.611-77.005 77.005 0 42.598 34.611 77.005 77.005 77.005s77.005-34.611 77.005-77.005c0-42.394-34.611-77.005-77.005-77.005zM527.565 218.624c-18.227 0-32.973-14.746-32.973-32.973s14.746-32.973 32.973-32.973c18.227 0 32.973 14.746 32.973 32.973s-14.746 32.973-32.973 32.973zM381.747 799.437h291.84v-44.032h-291.84v44.032zM381.747 683.93h291.84v-44.032h-291.84v44.032z" />
<glyph unicode="&#xe953;" glyph-name="db" d="M776.806 889.344c-71.68 28.262-166.093 43.622-265.83 43.622-99.942 0-194.355-15.36-265.83-43.622-81.92-32.358-127.181-79.258-127.181-132.506v-617.472c0-53.043 45.056-100.147 127.181-132.506 71.475-28.262 165.888-43.622 265.83-43.622s194.355 15.36 265.83 43.622c81.92 32.358 127.181 79.258 127.181 132.506v617.472c-0.205 53.248-45.261 100.147-127.181 132.506zM270.541 823.603c63.488 24.986 148.685 38.912 240.026 38.912s176.538-13.926 240.026-38.912c60.826-23.962 82.33-50.995 82.33-66.765s-21.709-42.803-82.33-66.765c-63.488-24.986-148.685-38.912-240.026-38.912s-176.538 13.926-240.026 38.912c-60.826 23.962-82.33 50.995-82.33 66.765s21.504 42.803 82.33 66.765zM833.126 139.571c0-15.77-21.709-42.803-82.33-66.765-63.488-24.986-148.685-38.912-240.026-38.912s-176.538 13.926-240.026 38.912c-60.826 23.962-82.33 50.995-82.33 66.765v92.57c16.384-10.24 35.226-19.661 56.73-28.262 71.475-28.262 165.888-43.622 265.83-43.622s194.355 15.36 265.83 43.622c21.504 8.602 40.346 18.022 56.73 28.262v-92.57h-0.41zM833.126 336.384c0-15.77-21.709-42.803-82.33-66.765-63.488-24.986-148.685-38.912-240.026-38.912s-176.538 13.926-240.026 38.912c-60.826 23.962-82.33 50.995-82.33 66.765v105.882c16.384-10.24 35.226-19.661 56.73-28.262 71.475-28.262 165.888-43.622 265.83-43.622s194.355 15.565 265.83 43.622c21.504 8.602 40.346 18.022 56.73 28.262v-105.882h-0.41zM750.797 479.539c-63.488-24.986-148.685-38.912-240.026-38.912s-176.538 13.926-240.026 38.912c-60.826 23.962-82.33 50.995-82.33 66.765v105.882c16.384-10.24 35.226-19.661 56.73-28.262 71.475-28.262 165.888-43.622 265.83-43.622s194.355 15.36 265.83 43.622c21.504 8.602 40.346 18.022 56.73 28.262v-105.882c-0.41-15.77-21.914-42.803-82.739-66.765z" />
<glyph unicode="&#xe954;" glyph-name="minus" d="M925.286 555.315h-828.621c-15.974 0-29.082-12.902-29.082-29.082v-150.528c0-15.974 12.902-29.082 29.082-29.082l828.826 0.205c15.974 0 29.082 12.902 29.082 29.082v150.528c-0.205 15.974-13.107 28.877-29.286 28.877z" />
<glyph unicode="&#xe955;" glyph-name="label" d="M566.477 852.275c109.363 0 174.694-47.718 174.694-154.624v-535.142l-151.757 134.144-151.757-134.144v504.627c0 78.643-7.168 148.070-28.262 185.139h157.082zM566.477 949.76c-76.595 0-339.149 0-381.133 0 103.834-35.226 155.034-115.712 155.034-265.421 0-132.71 0-738.099 0-738.099l249.037 220.365 249.242-220.365c0 0 0 673.382 0 751.411 0 147.456-93.594 252.109-272.179 252.109v0z" />
<glyph unicode="&#xe956;" glyph-name="checkmark" d="M512 953.856c-279.347 0-505.856-226.509-505.856-505.856s226.509-505.856 505.856-505.856 505.856 226.509 505.856 505.856-226.509 505.856-505.856 505.856zM411.443 189.952l-209.92 210.125c-7.987 7.987-7.987 20.89 0 28.877l72.704 72.704c7.987 7.987 20.89 7.987 28.877 0l108.339-108.339c7.987-7.987 20.89-7.987 28.877 0l287.949 288.154c7.987 7.987 20.89 7.987 28.877 0l72.909-72.704c7.987-7.987 7.987-20.89 0-28.877l-389.53-389.939c-8.192-7.987-21.094-7.987-29.082 0z" />
<glyph unicode="&#xe957;" glyph-name="stoppage" d="M513.229 954.88c-279.347 0-505.856-226.509-505.856-505.856s226.509-505.856 505.856-505.856 505.856 226.509 505.856 505.856-226.509 505.856-505.856 505.856zM808.141 395.366c0-10.854-8.806-19.661-19.661-19.661h-550.502c-10.854 0-19.661 8.806-19.661 19.661v106.906c0 10.854 8.806 19.661 19.661 19.661h550.502c10.854 0 19.661-8.806 19.661-19.661v-106.906z" />
<glyph unicode="&#xe958;" glyph-name="align-right" d="M79.462 825.037h864.256v-83.968h-864.256v83.968zM461.21 657.51h482.509v-83.968h-482.509v83.968zM79.462 489.779h864.256v-83.968h-864.256v83.968zM461.21 322.048h482.509v-83.968h-482.509v83.968zM79.462 154.112h864.256v-83.968h-864.256v83.968z" />
<glyph unicode="&#xe959;" glyph-name="caution" d="M473.702 506.778h78.438v-237.773h-78.438v237.773zM513.024 146.33c-23.347 0-42.394 18.842-42.394 42.394 0 23.347 18.842 42.394 42.394 42.394 23.347 0 42.394-18.842 42.394-42.394-0.205-23.347-19.046-42.394-42.394-42.394zM513.024 880.947l-502.784-870.81h1005.568l-502.784 870.81zM513.024 685.773l333.619-577.946h-667.443l333.824 577.946z" />
<glyph unicode="&#xe95a;" glyph-name="return" d="M18.637 706.458h826.982v-91.341h-826.982v91.341zM18.637 921.088h826.982v-91.341h-826.982v91.341zM18.637 491.622h507.085v-91.341h-507.085v91.341zM18.637 276.992h507.085v-91.341h-507.085v91.341zM18.637 62.157h507.085v-91.341h-507.085v91.341zM984.883 710.963c-12.698 0-22.938-10.24-22.938-22.938v-479.642h-126.976v94.618c0 15.155-16.998 23.962-29.491 15.565l-178.381-122.061c-10.854-7.373-10.854-23.552 0-31.13l178.381-122.061c12.493-8.602 29.491 0.41 29.491 15.565v103.629h149.709c12.698 0 22.938 10.24 22.938 22.938v502.579c0.205 12.698-10.035 22.938-22.733 22.938z" />
<glyph unicode="&#xe95b;" glyph-name="loading" d="M626.893 842.65c0-53.453-43.418-96.87-96.87-96.87s-96.87 43.418-96.87 96.87 43.418 96.87 96.87 96.87 96.87-43.418 96.87-96.87zM530.227 126.054c-46.694 0-84.787-37.888-84.787-84.787 0-46.694 37.888-84.787 84.787-84.787 46.694 0 84.787 37.888 84.787 84.787-0.205 46.899-38.093 84.787-84.787 84.787zM930.816 381.44c-33.382 0-60.416 27.034-60.416 60.416s27.034 60.416 60.416 60.416 60.416-26.829 60.416-60.416-27.034-60.416-60.416-60.416zM226.304 441.856c0 53.453-43.418 96.87-96.87 96.87s-96.666-43.213-96.666-96.87c0-53.453 43.418-96.87 96.87-96.87s96.666 43.418 96.666 96.87zM315.392 793.702c37.888-37.888 37.888-99.123 0-137.011s-99.123-37.888-137.011 0c-37.888 37.888-37.888 99.123 0 137.011 37.888 37.683 99.123 37.683 137.011 0zM762.061 210.022c-28.262-28.262-28.262-74.342 0-102.605s74.342-28.262 102.605 0c28.262 28.262 28.262 74.342 0 102.605s-74.138 28.262-102.605 0zM847.667 690.893c-18.842-18.842-49.562-18.842-68.403 0s-18.842 49.562 0 68.403c18.842 18.842 49.562 18.842 68.403 0s18.842-49.357 0-68.403zM315.392 227.226c-37.888 37.888-99.123 37.888-137.011 0s-37.888-99.123 0-137.011c37.888-37.888 99.123-37.888 137.011 0 37.683 37.888 37.683 99.123 0 137.011z" />
<glyph unicode="&#xe95c;" glyph-name="plus" d="M925.286 555.315h-280.986c-15.974 0-29.082 12.902-29.082 29.082v280.986c0 15.974-12.902 29.082-29.082 29.082h-150.528c-15.974 0-29.082-12.902-29.082-29.082v-280.986c0-15.974-12.902-29.082-29.082-29.082h-280.781c-15.974 0-29.082-12.902-29.082-29.082v-150.528c0-15.974 12.902-29.082 29.082-29.082h280.986c15.974 0 29.082-12.902 29.082-29.082v-280.986c0-15.974 12.902-29.082 29.082-29.082h150.528c15.974 0 29.082 12.902 29.082 29.082v281.19c0 15.974 12.902 29.082 29.082 29.082h280.986c15.974 0 29.082 12.902 29.082 29.082v150.528c-0.205 15.974-13.107 28.877-29.286 28.877z" />
<glyph unicode="&#xe95d;" glyph-name="pause" d="M407.142 26.112h-184.73c-16.794 0-30.515 13.722-30.515 30.515v782.746c0 16.794 13.722 30.515 30.515 30.515h184.73c16.794 0 30.515-13.722 30.515-30.515v-782.746c0-16.794-13.722-30.515-30.515-30.515zM809.779 869.888h-184.73c-16.794 0-30.515-13.722-30.515-30.515v-782.746c0-16.794 13.722-30.515 30.515-30.515h184.73c16.794 0 30.515 13.722 30.515 30.515v782.746c0.205 16.794-13.517 30.515-30.515 30.515z" />
<glyph unicode="&#xe95e;" glyph-name="play" d="M143.565 39.834v818.381c0 20.685 22.733 33.382 40.346 22.528l667.238-409.19c16.794-10.24 16.794-34.816 0-45.261l-667.238-408.986c-17.613-10.854-40.346 1.843-40.346 22.528z" />
<glyph unicode="&#xe95f;" glyph-name="resize" d="M282.2-0.2c-7.6 0-15.4 3-21.2 8.8-11.8 11.8-11.8 30.8 0 42.4l652 652c11.8 11.8 30.8 11.8 42.4 0 11.8-11.8 11.8-30.8 0-42.4l-652-652c-5.8-6-13.4-8.8-21.2-8.8zM616-0.2c-7.6 0-15.4 3-21.2 8.8-11.8 11.8-11.8 30.8 0 42.4l318.2 318.2c11.8 11.8 30.8 11.8 42.4 0 11.8-11.8 11.8-30.8 0-42.4l-318.2-318.2c-5.8-6-13.6-8.8-21.2-8.8z" />
<glyph unicode="&#xe960;" glyph-name="right" d="M497.8 116l-350 602.2c-8 12.6 1 28.8 15.8 28.8h700.2c14.8 0 23.8-16.4 15.8-28.8l-350.2-602.2c-7.2-11.6-24.2-11.6-31.6 0z" />
<glyph unicode="&#xe961;" glyph-name="left" d="M816.8 437.4l-602.2-350c-12.6-8-28.8 1-28.8 15.8v700.2c0 14.8 16.4 23.8 28.8 15.8l602.2-350c11.6-7.4 11.6-24.4 0-31.8z" />
<glyph unicode="&#xe962;" glyph-name="bold" d="M771.072 481.792c171.622 87.859 165.274 409.6-163.226 414.515h-492.749v-108.544c74.342 0 108.339-28.058 108.339-99.942v-480.051c0-62.874-17.203-97.28-108.339-97.28v-108.544h463.462c410.214-0.205 398.336 405.094 192.512 479.846zM401.818 769.126h138.035c87.859 0 153.6-38.502 153.6-124.723 0-75.776-54.067-115.917-130.867-115.917h-160.973v240.64zM562.586 128.922h-160.768v282.010h163.635c84.173-1.024 146.227-54.886 146.227-130.458 0.205-75.162-45.466-151.552-149.094-151.552z" />
<glyph unicode="&#xe963;" glyph-name="chart" d="M553.37 724.070v65.331l108.339 108.339c15.974-5.325 31.744-11.469 46.899-18.432l-155.238-155.238zM829.44 799.642l-276.070-276.070v-32.154h33.178l275.456 275.661c-10.24 11.264-21.094 22.323-32.563 32.563zM553.37 857.19l54.886 54.886c-18.022 3.686-36.25 6.349-55.091 7.987v-62.874zM974.234 545.69l-54.272-54.272h62.054c-1.638 18.432-4.096 36.454-7.782 54.272zM960.102 599.142c-5.325 15.974-11.469 31.744-18.432 46.899l-154.624-154.624h65.331l107.725 107.725zM918.528 690.483c-7.987 13.517-16.589 26.624-26.010 39.322l-238.387-238.387h65.331l199.066 199.066zM792.166 830.157c-12.698 9.216-25.805 18.022-39.322 26.010l-199.68-199.68v-65.331l239.002 239.002zM473.293 411.546v508.518c-241.050-20.275-430.285-222.413-430.285-468.582 0-259.891 210.534-470.426 470.426-470.426 246.374 0 448.307 189.235 468.582 430.49h-508.723z" />
<glyph unicode="&#xe964;" glyph-name="document" d="M719.462 450.867l-85.197-93.184h-247.808l-82.944 93.184h-265.421l39.117-457.728h858.522l48.128 457.728h-264.397zM898.253 729.805h-773.939l-9.216 68.813h792.371l-9.216-68.813zM847.258 845.722h-665.6l-9.216 57.344h683.827l-9.011-57.344zM79.667 512.307l-14.746 167.526h895.386l-15.77-167.526h-99.942l7.578 75.776h-681.779l7.578-75.776h-98.304z" />
<glyph unicode="&#xe965;" glyph-name="link" d="M289.178 570.47c16.589 16.589 35.226 30.515 54.886 41.37 109.568 60.416 250.266 28.262 320.717-78.643l-85.197-85.197c-24.371 55.706-85.197 87.45-145.613 73.933-22.733-5.12-44.442-16.384-62.054-33.997l-163.43-163.43c-49.562-49.562-49.562-130.458 0-180.019s130.458-49.562 180.019 0l50.381 50.381c45.875-18.227 95.027-25.395 143.565-21.914l-111.411-111.206c-95.437-95.437-249.856-95.437-345.293 0s-95.437 249.856 0 345.293l163.43 163.43zM548.864 830.157l-111.206-111.206c48.538 3.686 97.69-3.686 143.565-21.914l50.381 50.381c49.562 49.562 130.458 49.562 180.019 0s49.562-130.458 0-180.019l-163.43-163.43c-49.766-49.766-130.662-49.357-180.019 0-11.469 11.469-21.504 25.805-27.648 39.936l-85.197-85.197c9.011-13.517 18.227-25.395 30.31-37.274 30.925-30.925 70.042-53.862 115.302-64.717 58.573-14.131 121.242-6.349 175.104 23.347 19.661 10.854 38.093 24.576 54.886 41.37l163.43 163.43c95.437 95.437 95.437 249.856 0 345.293-95.642 95.232-250.266 95.232-345.498 0z" />
<glyph unicode="&#xe966;" glyph-name="arrow3" d="M515.482 615.117l263.782-314.778h-527.77l263.987 314.778z" />
<glyph unicode="&#xe967;" glyph-name="arrow1" d="M511.386 257.331l-263.987 314.778h527.77l-263.782-314.778z" />
<glyph unicode="&#xe968;" glyph-name="arrow2" d="M514.048 880.333l263.782-314.778h-527.565l263.782 314.778zM514.048 24.883l-263.782 314.778h527.77l-263.987-314.778z" />
<glyph unicode="&#xe969;" glyph-name="textcolor" d="M755.098 503.296c-104.038-155.034-170.803-252.109-170.803-346.522s76.39-170.803 170.803-170.803 170.803 76.39 170.803 170.803c0.205 94.413-66.765 191.283-170.803 346.522zM766.976 281.088c-24.576-61.645-93.389-46.080-56.525 34.406 15.565 33.792 26.419 48.333 44.032 77.414 14.746-22.938 28.877-70.861 12.493-111.821zM408.781 155.75v623.411h-134.758c-47.104 0-85.606-38.298-85.606-85.606h-84.173v222.822h805.274v-222.822h-84.378c0 47.309-38.298 85.811-85.811 85.811h-133.939v-372.326c-58.163-93.389-93.389-169.165-93.389-250.061 0-66.56 27.034-127.181 70.656-171.008h-288.973v84.378h29.491c47.309-0.41 85.606 38.093 85.606 85.402z" />
<glyph unicode="&#xe96a;" glyph-name="text" d="M916.275 916.787v0h-808.55v-223.437h85.197c0 47.514 38.502 86.016 86.016 86.016h135.168v-625.459c0-47.514-38.502-86.016-86.016-86.016h-29.696v-84.582h424.141v84.582h-25.395c-47.514 0-86.016 38.502-86.016 86.016v625.459h134.349c47.514 0 86.016-38.502 86.016-86.016h84.582l0.205 223.437z" />
<glyph unicode="&#xe96b;" glyph-name="refresh" d="M822.682 744.346l-98.714-98.714c-53.658 53.658-127.59 86.63-209.306 86.63-163.43 0-295.936-132.506-295.936-296.141v0h79.872l-148.48-183.706-148.685 183.501h77.414c0 240.435 194.97 435.814 435.814 435.814 120.422 0.205 229.376-48.538 308.019-127.386zM1022.771 451.482l-148.275 183.501-148.48-183.501h79.872c0-163.43-132.506-296.141-296.141-296.141-81.92 0-155.853 33.178-209.306 86.63l-98.714-98.714c78.848-78.848 187.802-127.59 308.019-127.59 240.435 0 435.814 195.174 435.814 435.814v0h77.21z" />
<glyph unicode="&#xe96c;" glyph-name="chevron-right" d="M235.93 822.784l81.51 81.101c12.902 12.902 33.792 12.698 46.694-0.205l430.285-432.333c12.698-12.902 12.698-33.587 0-46.49l-430.49-431.923c-12.902-12.902-33.792-12.902-46.694-0.205l-81.51 81.101c-12.902 12.902-12.902 33.792-0.205 46.694l303.309 304.742c12.698 12.902 12.698 33.587 0 46.49l-303.104 304.538c-12.698 12.902-12.698 33.792 0.205 46.49z" />
<glyph unicode="&#xe96d;" glyph-name="chevron-left" d="M789.914 75.878l-81.51-81.101c-12.902-12.902-33.792-12.698-46.694 0.205l-430.080 432.128c-12.698 12.902-12.698 33.587 0 46.49l430.285 432.333c12.902 12.902 33.792 12.902 46.694 0.205l81.306-81.306c12.902-12.902 12.902-33.792 0.205-46.694l-303.309-304.538c-12.698-12.902-12.698-33.587 0-46.49l303.309-304.742c12.698-12.698 12.698-33.587-0.205-46.49z" />
<glyph unicode="&#xe96e;" glyph-name="align-center" d="M945.493 742.912h-866.645v84.139h866.645v-84.139zM945.493 406.357h-866.645v83.968h866.645v-83.968zM754.176 574.635h-483.669v83.968h483.84v-83.968zM754.176 238.080h-483.669v83.968h483.84v-83.968zM945.493 69.803h-866.645v83.968h866.645v-83.968z" />
<glyph unicode="&#xe96f;" glyph-name="align-left" d="M946.688 742.229h-866.987v84.309h867.157v-84.309h-0.171zM563.883 573.952h-484.181v84.309h484.011v-84.309zM946.688 405.504h-866.987v84.309h867.157v-84.309h-0.171zM563.883 237.227h-484.181v84.309h484.011v-84.309zM946.688 68.779h-866.987v84.309h867.157v-84.309h-0.171z" />
<glyph unicode="&#xe970;" glyph-name="preview" d="M637.133 445.952c0-67.994-55.091-123.29-123.29-123.29s-123.29 55.091-123.29 123.29c0 67.994 55.091 123.29 123.29 123.29s123.29-55.091 123.29-123.29zM1021.952 466.022c0 0-149.299-333.21-512.819-333.21-337.51 0-507.29 333.21-507.29 333.21s151.552 293.069 507.29 293.069c361.677 0 512.819-293.069 512.819-293.069zM732.979 445.952c0 121.037-98.099 219.136-219.136 219.136s-219.136-98.099-219.136-219.136c0-121.037 98.099-219.136 219.136-219.136s219.136 98.099 219.136 219.136z" />
<glyph unicode="&#xe971;" glyph-name="close" d="M783.974 68.301l-239.411 239.616c-17.818 17.818-46.899 17.818-64.717 0l-241.254-241.254c-17.818-17.818-46.899-17.818-64.717 0l-44.032 44.237c-17.818 17.818-17.818 46.899 0 64.717l241.050 241.254c17.818 17.818 17.818 46.899 0 64.717l-239.002 238.797c-17.818 17.818-17.818 46.899 0 64.717l44.237 44.237c17.818 17.818 46.899 17.818 64.717 0l239.002-239.002c17.818-17.818 46.899-17.818 64.717 0l241.050 241.050c17.818 17.818 46.899 17.818 64.717 0l44.237-44.032c17.818-17.818 17.818-46.899 0-64.717l-241.254-241.254c-17.818-17.818-17.818-46.899 0-64.717l239.616-239.411c17.818-17.818 17.818-46.899 0-64.717l-44.032-44.237c-18.022-17.818-46.899-17.818-64.922 0z" />
<glyph unicode="&#xe972;" glyph-name="exit" d="M200.6 244.8l171.4 171.4c17.8 17.8 17.8 46.6 0 64.4l-171.4 171.4c-17.8 17.8-17.8 46.6 0 64.4l44 43.8c17.8 17.8 46.6 17.8 64.4 0l171.4-171.4c17.8-17.8 46.6-17.8 64.4 0l171.2 171.6c17.8 17.8 46.6 17.8 64.4 0l43.8-44c17.8-17.8 17.8-46.6 0-64.4l-171.4-171.4c-17.8-17.8-17.8-46.6 0-64.4l171.4-171.4c17.8-17.8 17.8-46.6 0-64.4l-44-44c-17.8-17.8-46.6-17.8-64.4 0l-171.2 171.6c-17.8 17.8-46.6 17.8-64.4 0l-171.4-171.4c-17.8-17.8-46.6-17.8-64.4 0l-44 43.8c-17.6 17.8-17.6 46.8 0.2 64.4z" />
<glyph unicode="&#xe973;" glyph-name="dashboardlist" d="M611.942 344.986h-205.824v206.029h205.824v-206.029zM406.118 880.128v-205.824h205.824v205.824h-205.824zM77.824 344.986h204.595v206.029h-204.595v-206.029zM735.232 674.509h206.848v205.619h-206.848v-205.619zM611.942 15.872v205.619h-205.824v-205.824l205.824 0.205zM282.419 221.491h-204.595v-205.824h204.595v205.824zM942.080 551.014h-206.848v-205.824h206.848v205.824zM735.232 221.491v-205.824h206.848v205.824h-206.848zM282.419 674.509v205.619h-204.595v-205.824l204.595 0.205z" />
<glyph unicode="&#xe974;" glyph-name="add-dir" d="M1008.435 265.523h-125.133v125.133h-96.666v-125.133h-125.133v-96.666h125.133v-125.133h96.666v125.133h125.133v96.666zM569.344 43.52h-558.285v795.853h322.765l79.053-78.848c21.914-21.709 51.61-33.997 82.33-33.997h513.024v-242.893h-96.87v146.022h-415.949c-56.934 0-110.387 22.118-150.733 62.259l-50.79 50.586h-185.958v-601.907h461.414v-97.075z" />
<glyph unicode="&#xe975;" glyph-name="add-dir2" d="M915.251 172.544h-125.952v125.952h-97.28v-125.952h-125.952v-97.28h125.952v-125.952h97.28v125.952h125.952v97.28zM475.341-50.688h-376.832v1003.52h571.187l245.76-245.35v-317.645h-97.485v256.614h-209.306v208.896h-412.672v-808.755h279.552l-0.205-97.28z" />
<glyph unicode="&#xe976;" glyph-name="calendar" d="M368.845 350.31h-143.974v143.974h143.974v-143.974zM586.342 494.285h-143.974v-143.974h143.974v143.974zM803.84 494.285h-143.974v-143.974h143.974v143.974zM368.845 284.16h-143.974v-143.974h143.974v143.974zM586.342 284.16h-143.974v-143.974h143.974v143.974zM803.84 284.16h-143.974v-143.974h143.974v143.974zM857.498 784.896c0-24.576-19.866-44.442-44.442-44.442s-44.442 19.866-44.442 44.442v111.821c0 24.576 19.866 44.442 44.442 44.442s44.442-19.866 44.442-44.442v-111.821zM257.638 896.922c0 24.576-19.866 44.442-44.442 44.442s-44.442-19.866-44.442-44.442v-111.821c0-24.576 19.866-44.442 44.442-44.442s44.442 19.866 44.442 44.442v111.821zM911.155 832v-45.466c0-54.067-44.032-98.099-98.099-98.099s-98.099 44.032-98.099 98.099v45.466h-403.661v-45.261c0-54.067-44.032-98.099-98.099-98.099s-98.099 44.032-98.099 98.099v45.261h-106.496v-877.363h1006.797v877.363h-104.243zM917.709 52.531h-811.418v543.539h811.213v-543.539z" />
<glyph unicode="&#xe977;" glyph-name="check" d="M9.011 439.603l86.221 79.667c100.762-48.742 164.864-86.016 278.118-166.707 212.992 241.869 353.894 364.544 615.629 527.36l28.058-64.512c-215.859-188.416-373.965-398.131-601.498-806.298-140.288 165.274-234.086 270.746-406.528 430.49z" />
<glyph unicode="&#xe978;" glyph-name="edit" d="M601.498 811.315l-486.81-486.81-53.658-261.53 266.035 49.152 486.81 486.81-212.378 212.378zM169.574 270.029l432.128 432.128 26.829-26.829-432.128-432.128-26.829 26.829zM272.179 166.81l-26.829 26.829 432.128 432.128 26.829-26.829-432.128-432.128zM956.826 741.888l-95.437-95.437-212.378 212.378 95.437 95.437 212.378-212.378zM53.658 6.042h904.602v-53.658h-904.602v53.658z" />
<glyph unicode="&#xe979;" glyph-name="gear" d="M1017.856 381.85v136.192l-73.523 26.214c-28.058 10.035-50.586 31.334-62.054 58.982 0 0 0 0 0 0-11.469 27.648-10.65 58.778 2.253 85.606l33.587 70.451-96.256 96.256-70.451-33.587c-27.034-12.902-58.163-13.517-85.811-2.253 0 0 0 0 0 0-27.853 11.878-49.357 34.406-59.392 62.464l-26.010 73.728h-136.192l-26.214-73.523c-10.035-28.058-31.334-50.586-58.982-62.054 0 0 0 0 0 0-27.648-11.469-58.778-10.65-85.811 2.253l-70.451 33.382-96.256-96.256 33.587-70.451c12.902-27.034 13.517-58.163 2.253-85.811 0 0 0 0 0 0-11.674-27.648-34.202-49.152-62.259-59.187l-73.728-26.010v-136.192l73.523-26.214c28.058-10.035 50.586-31.334 62.054-58.982 0 0 0 0 0 0 11.469-27.648 10.65-58.778-2.253-85.811l-33.587-70.451 96.256-96.256 70.451 33.587c27.034 12.902 58.163 13.517 85.811 2.253 0 0 0 0 0 0 27.443-11.469 48.947-33.997 58.982-62.054l26.214-73.728h136.192l26.010 73.114c10.035 28.262 31.744 51.2 59.392 62.669 0 0 0 0 0 0 27.238 11.264 58.163 10.65 84.992-2.048l71.066-33.792 96.256 96.256-33.587 70.656c-12.902 27.034-13.517 58.163-2.253 85.606 0 0 0 0 0 0 11.469 27.648 33.997 48.947 62.054 58.982l74.138 26.010zM512 264.499c-102.4 0-185.549 83.149-185.549 185.549s83.149 185.549 185.549 185.549c102.4 0 185.549-83.149 185.549-185.549s-83.149-185.549-185.549-185.549z" />
<glyph unicode="&#xe97a;" glyph-name="help" d="M509.952 857.6c225.28 0 407.552-182.272 407.552-407.552s-182.272-407.552-407.552-407.552c-225.28 0-407.552 182.272-407.552 407.552s182.272 407.552 407.552 407.552zM509.952 955.904c-279.347 0-505.856-226.509-505.856-505.856s226.509-505.856 505.856-505.856 505.856 226.509 505.856 505.856-226.509 505.856-505.856 505.856v0zM514.867 146.739c-35.635 0-64.717 28.877-64.717 64.717 0 35.635 28.877 64.717 64.717 64.717 35.635 0 64.717-28.877 64.717-64.717 0-35.635-28.877-64.717-64.717-64.717zM565.862 338.022v-11.674c0 0-97.075 0-106.701 0v11.674c0 32.973 4.71 75.162 43.008 111.821s86.016 66.97 86.016 113.050c0 50.79-35.226 77.619-79.667 77.619-73.933 0-78.848-76.8-80.691-93.594h-103.629c2.662 80.077 36.659 191.898 184.934 191.898 128.614 0 186.368-86.016 186.368-166.912 0.205-128.614-129.638-151.142-129.638-233.882z" />
<glyph unicode="&#xe97b;" glyph-name="hide" d="M7.373 270.438v359.219h1009.459v-359.014l-1009.459-0.205zM918.323 368.742v162.406h-812.646v-162.406h812.646z" />
<glyph unicode="&#xe97c;" glyph-name="home" d="M512 900.608l-505.856-505.446h104.448v-407.962h802.816v407.962h104.448l-505.856 505.446zM803.021 97.587h-181.043v212.378h-219.75v-212.378h-181.043v356.147l291.021 290.816 291.021-290.816v-356.147z" />
<glyph unicode="&#xe97d;" glyph-name="html" d="M576.922 735.744h96.461l-218.931-576.512h-96.051l218.522 576.512zM1013.76 407.654l-284.672-159.949v99.123l165.683 93.389-165.683 92.57v99.533l284.672-159.949v-64.717zM11.059 472.371l284.672 159.949v-99.533l-165.683-92.57 165.683-93.389v-99.123l-284.672 159.949v64.717z" />
<glyph unicode="&#xe97e;" glyph-name="italic" d="M405.094 79.155c-15.155-30.72-2.867-49.152 27.443-49.152h59.597v-85.402h-362.496v85.402h37.683c56.934 0 70.246 38.502 90.522 74.342l353.485 705.536c16.794 35.84-6.349 56.115-35.84 56.115h-47.514v85.402h360.038v-85.402h-35.226c-48.947 0-66.97-27.034-86.426-63.693l-361.267-723.149z" />
<glyph unicode="&#xe97f;" glyph-name="new-window" d="M236.544 915.558v-716.8h771.277v716.8h-771.277zM887.603 318.976h-530.842v363.11h530.637v-363.11zM887.603-19.149v120.218h-750.592v582.246h-120.422v-702.464h871.014z" />
<glyph unicode="&#xe980;" glyph-name="orderedlist" d="M290.202 792.269h715.981v-101.171h-715.981v101.171zM290.202 488.96h715.981v-101.171h-715.981v101.171zM290.202 185.651h715.981v-101.171h-715.981v101.171zM71.68 639.488h50.79v214.835h-42.803v-3.891c0-30.106-29.696-32.973-58.573-34.202v-36.25h50.586v-140.493zM163.226 389.222h-68.813c30.925 25.805 64.717 56.73 64.717 96.87 0 39.936-28.672 65.741-72.909 65.741-24.166 0-48.333-7.168-68.813-22.938l15.974-39.936c13.312 9.626 26.829 18.227 43.827 18.227 18.227 0 28.262-8.806 28.262-24.986-0.41-27.034-32.358-53.248-89.702-105.062v-33.382h147.456v45.466zM130.458 142.643c18.842 9.421 28.877 25.19 28.877 45.466 0 26.419-21.299 52.838-69.018 52.838-21.504 0-46.694-4.915-65.331-16.998l11.469-40.96c16.179 10.035 31.13 13.926 43.213 13.926 16.179 0 25.395-6.144 25.395-16.794 0-14.95-19.456-19.046-31.13-19.046h-21.504v-40.55h22.528c16.384 0 35.635-6.554 35.635-24.781 0-13.722-12.288-22.323-32.358-22.323-16.998 0-33.382 5.734-48.128 13.926l-11.469-42.394c18.842-11.469 41.779-15.77 62.874-15.77 50.586 0 84.378 25.6 84.378 63.898 0.205 22.938-13.722 41.779-35.43 49.562z" />
<glyph unicode="&#xe981;" glyph-name="printer" d="M883.917 631.706v214.63h-743.834v-214.63h-130.662v-495.206h126.771l96.87 192.307h561.971l94.822-192.307h124.723v495.206h-130.662zM786.432 631.706h-548.864v117.146h548.864v-117.146zM917.709 507.802c-16.384 0-29.491 13.312-29.491 29.491 0 16.384 13.312 29.491 29.491 29.491 16.384 0 29.491-13.312 29.491-29.491 0-16.384-13.107-29.491-29.491-29.491zM733.389 236.032l94.822-201.933h-630.17l96.666 201.933h438.682z" />
<glyph unicode="&#xe982;" glyph-name="save" d="M818 944.4h-788v-993h964v817.2l-176 175.8zM689 803.8v-177.6h-98.8v177.6h98.8zM897.4 48h-770.8l-0.2 800h154.8v-279.6h473.6v279.6h23.4l119.4-119.4-0.2-680.6z" />
<glyph unicode="&#xe983;" glyph-name="search" d="M1009.664 44.339l-258.253 258.253c48.538 66.765 77.414 149.094 77.414 237.773-0.205 223.437-181.862 405.299-405.299 405.299s-405.299-181.862-405.299-405.299c0-223.437 181.862-405.299 405.299-405.299 84.787 0 163.43 26.214 228.557 70.656l259.686-259.482 97.894 98.099zM137.216 540.365c0 157.901 128.41 286.515 286.31 286.515s286.31-128.41 286.31-286.31c0-157.901-128.41-286.31-286.31-286.31-157.901-0.205-286.31 128.205-286.31 286.106z" />
<glyph unicode="&#xe984;" glyph-name="table" d="M11.264 891.392v-886.17h1000.243v886.17h-1000.243zM914.432 427.52h-354.509v228.352h354.509v-228.352zM462.848 655.872v-228.352h-354.509v228.352h354.509zM108.339 330.445h354.509v-228.147h-354.509v228.147zM559.923 102.298v228.147h354.509v-228.147h-354.509z" />
<glyph unicode="&#xe985;" glyph-name="trashcan" d="M400.179 591.36c0 19.866-16.179 36.045-36.045 36.045s-36.045-16.179-36.045-36.045v-438.272c0-19.866 16.179-36.045 36.045-36.045s36.045 16.179 36.045 36.045v438.272zM545.997 591.36c0 19.866-16.179 36.045-36.045 36.045s-36.045-16.179-36.045-36.045v-438.272c0-19.866 16.179-36.045 36.045-36.045s36.045 16.179 36.045 36.045v438.272zM692.019 591.36c0 19.866-16.179 36.045-36.045 36.045s-36.045-16.179-36.045-36.045v-438.272c0-19.866 16.179-36.045 36.045-36.045s36.045 16.179 36.045 36.045v438.272zM787.456 36.557h-555.008v671.13h-84.173v-755.302h723.354v755.302h-84.173v-671.13zM687.104 876.237c-37.274 0-67.379 30.106-67.379 67.379h-219.546c0-37.274-30.106-67.379-67.379-67.379h-228.352v-96.256h811.008v96.256h-228.352z" />
</font>
</defs>
</svg>
